<?xml version="1.0" standalone="no"?>
<!DOCTYPE svg PUBLIC "-//W3C//DTD SVG 1.1//EN" "http://www.w3.org/Graphics/SVG/1.1/DTD/svg11.dtd" >
<svg xmlns="http://www.w3.org/2000/svg" xmlns:xlink="http://www.w3.org/1999/xlink" version="1.1">
<metadata>
Created by FontForge 20201107 at Wed Aug  4 12:36:59 2021
 By Robert Madole
Copyright (c) Font Awesome
</metadata>
<!-- Font Awesome Pro 5.15.4 by @fontawesome - https://fontawesome.com License - https://fontawesome.com/license (Commercial License) --><defs>
<font id="FontAwesome5Pro-Light" horiz-adv-x="512" >
  <font-face 
    font-family="Font Awesome 5 Pro Light"
    font-weight="300"
    font-stretch="normal"
    units-per-em="512"
    panose-1="2 0 3 3 0 0 0 0 0 0"
    ascent="448"
    descent="-64"
    bbox="-0.0783468 -64.0098 640.005 448.01"
    underline-thickness="25"
    underline-position="-50"
    unicode-range="U+0020-F8FF"
  />
    <missing-glyph />
    <glyph glyph-name="book-heart" unicode="&#xf499;" horiz-adv-x="448" 
d="M230.1 140.1l-84.5 85.6006c-24.5996 24.8994 -23.1992 66.0996 4.30078 89.0996c13.7998 11.6006 47.5996 28.5 90.1992 -14.5c42.5 43 76.3008 26.1006 90.2002 14.5c27.5 -23 28.9004 -64.2002 4.2998 -89.0996l-84.6992 -85.6006c-5.5 -5.5 -14.3008 -5.5 -19.8008 0
zM170.3 290.2c-14.3994 -12 -12.3994 -31.6006 -2.09961 -42l71.7998 -72.6006l72 72.6006c10.2002 10.3994 12.2998 30 -2.09961 42c-13.8008 11.5 -31.3008 3.5 -38.4004 -3.7002l-31.4004 -31.7002l-31.3994 31.7002c-7.2002 7.09961 -24.7002 15.2002 -38.4004 3.7002z
M448 56c0 -10 -6.2002 -18.5996 -14.9004 -22.2002c-3.59961 -16.0996 -4.39941 -45.5996 -0.399414 -65.7998h3.2998c6.59961 0 12 -5.40039 12 -12v-8c0 -6.59961 -5.40039 -12 -12 -12h-372c-35.2998 0 -64 28.7002 -64 64v368c0 44.2002 35.7998 80 80 80h344
c13.2998 0 24 -10.7002 24 -24v-368zM404.3 -32c-3.09961 20.4004 -2.89941 45.2002 0 64h-340.3c-17.7002 0 -32 -14.2998 -32 -32s14.2998 -32 32 -32h340.3zM416 64v352h-336c-26.5 0 -48 -21.5 -48 -48v-312.9c9.5 5.5 20.2998 8.90039 32 8.90039h352z" />
    <glyph glyph-name="menorah" unicode="&#xf676;" horiz-adv-x="640" 
d="M608 448c0 0 32 -46.3301 32 -64s-14.3301 -32 -32 -32s-32 14.3301 -32 32s32 64 32 64zM512 352c-17.6699 0 -32 14.3301 -32 32s32 64 32 64s32 -46.3301 32 -64s-14.3301 -32 -32 -32zM416 352c-17.6699 0 -32 14.3301 -32 32s32 64 32 64s32 -46.3301 32 -64
s-14.3301 -32 -32 -32zM320 352c-17.6699 0 -32 14.3301 -32 32s32 64 32 64s32 -46.3301 32 -64s-14.3301 -32 -32 -32zM224 352c-17.6699 0 -32 14.3301 -32 32s32 64 32 64s32 -46.3301 32 -64s-14.3301 -32 -32 -32zM128 352c-17.6699 0 -32 14.3301 -32 32s32 64 32 64
s32 -46.3301 32 -64s-14.3301 -32 -32 -32zM64 384c0 -17.6699 -14.3301 -32 -32 -32s-32 14.3301 -32 32s32 64 32 64s32 -46.3301 32 -64zM616 320c4.41992 0 8 -3.58008 8 -8v-168c0 -44.1797 -35.8203 -80 -80 -80h-208v-96h200c4.41992 0 8 -3.58008 8 -8v-16
c0 -4.41992 -3.58008 -8 -8 -8h-432c-4.41992 0 -8 3.58008 -8 8v16c0 4.41992 3.58008 8 8 8h200v96h-208c-44.1797 0 -80 35.8203 -80 80v168c0 4.41992 3.58008 8 8 8h16c4.41992 0 8 -3.58008 8 -8v-168c0 -26.5098 21.4902 -48 48 -48h208v216c0 4.41992 3.58008 8 8 8
h16c4.41992 0 8 -3.58008 8 -8v-216h208c26.5098 0 48 21.4902 48 48v168c0 4.41992 3.58008 8 8 8h16zM504 320h16c4.41992 0 8 -3.58008 8 -8v-184h-32v184c0 4.41992 3.58008 8 8 8zM120 320h16c4.41992 0 8 -3.58008 8 -8v-184h-32v184c0 4.41992 3.58008 8 8 8z
M408 320h16c4.41992 0 8 -3.58008 8 -8v-184h-32v184c0 4.41992 3.58008 8 8 8zM216 320h16c4.41992 0 8 -3.58008 8 -8v-184h-32v184c0 4.41992 3.58008 8 8 8z" />
    <glyph glyph-name="acorn" unicode="&#xf6ae;" horiz-adv-x="448" 
d="M352 384c53.0195 0 96 -42.9805 96 -96v-32c0 -17.6699 -14.3301 -32 -32 -32v-32c0 -98.0596 -55.4004 -187.7 -143.11 -231.55l-48.8896 -24.4502l-48.8896 24.4502c-87.71 43.8496 -143.11 133.49 -143.11 231.55v32c-17.6699 0 -32 14.3301 -32 32v32
c0 53.0195 42.9805 96 96 96h112.32c3.83008 22.7402 13.7197 43.9004 29.0996 61.4102c3 3.42969 8.40039 3.41992 11.6201 0.200195l11.3301 -11.3301c3.01953 -3.02051 2.97949 -7.75 0.209961 -11c-9.70996 -11.4004 -16.1396 -24.8799 -19.46 -39.2803h110.88zM384 192
v32h-320v-32c0 -86.4902 48.0596 -164.25 125.42 -202.93l34.5801 -17.29l34.5801 17.29c77.3604 38.6797 125.42 116.439 125.42 202.93zM416 256v32c0 35.29 -28.71 64 -64 64h-256c-35.29 0 -64 -28.71 -64 -64v-32h384z" />
    <glyph glyph-name="alicorn" unicode="&#xf6b0;" horiz-adv-x="640" 
d="M631.98 384c7.91992 0 11.0293 -10.2695 4.44922 -14.6699l-92.4492 -36.6602l0.0292969 -64.8301c0.00976562 -20.5498 -13.0498 -38.8096 -32.4902 -45.4395l-25.5195 -8.70996c-5.46973 -1.87012 -36.3398 -9.87012 -55.4502 18.7998l-14.5498 21.8193v-50.5195
c0 -29.8398 -11.5 -58.0898 -32 -79.5898v-156.2c0 -17.6699 -14.3301 -32 -32 -32h-64c-17.6699 0 -32 14.3301 -32 32v135.64l-51.8398 11.5205l-19.29 -53.7305l21.6797 -85.5693c5.10059 -20.1104 -10.0693 -39.8604 -31.0195 -39.8604h-57.5303
c-14.79 0 -27.6602 10.1396 -31.0996 24.5195l-21.1309 87.8604c-2.5791 10.71 -2.31934 21.9697 0.800781 32.7402l21.9697 74.2695c-15.6299 17.9102 -24.5303 41.04 -24.5303 65.2402c0 5.81055 0.75 11.4199 1.70996 16.96
c-19.4893 -6.10938 -33.7197 -24.0898 -33.7197 -45.5898v-56c0 -4.41992 -3.58008 -8 -8 -8h-16c-4.41992 0 -8 3.58008 -8 8v56c0 43.7305 35.1104 79.1299 78.6602 79.8604c5.57031 9.15918 12.6699 17.2393 20.7598 24.1797
c2.41992 -11.6904 6.45996 -22.8896 11.4004 -33.7305c-9.14062 -11.5 -14.8203 -25.8594 -14.8203 -41.6797c0 -22.8701 11.46 -43 28.8701 -55.1797l-27.6299 -93.4102c-0.806641 -2.79297 -1.24121 -5.72266 -1.24121 -8.77441
c0 -2.5498 0.301758 -5.0293 0.871094 -7.40527l21.1299 -87.8604h57.5303l-24.0801 95.0498l32.1201 89.4697l104.43 -23.21v-161.31h64v170.19c19.3496 15.4297 32 38.9297 32 65.5996v100.21l48 -16l25.1797 -37.75c2.33984 -3.50977 9.15039 -9.45996 18.4805 -6.26953
l25.5195 8.70996c6.29883 2.15039 10.8301 8.11816 10.8301 15.1406v0.00878906l-0.0498047 93.8799l-20.3896 24.7803c11.5293 4.83984 19.6299 16.21 19.6299 29.5h-111.2c-53.0195 0 -96 -42.9805 -96 -96l-0.0595703 -32c-59.8408 0 -106.561 29.7695 -135.881 86.29
c-5.33984 -15.1904 -8.05957 -31.0703 -8.05957 -47.3799c0 -60.5098 45.6904 -115.38 107.44 -130.57c4.16992 -1.03027 6.89941 -4.97949 6.09961 -9.2002l-2.96973 -15.6992c-0.839844 -4.4707 -5.28027 -7.49023 -9.7002 -6.43066
c-76.3105 18.2998 -132.87 86.5205 -132.87 161.9c0 26.0098 5.62988 51.1494 16.7402 74.7002c4.29004 9.0293 12.5996 14.1895 23.1299 14.3896c9.96973 -0.150391 19.0303 -6.15039 23.0303 -15.3096c18.3994 -41.9004 45.8193 -67.4004 81.5098 -76.6104
c2.20996 68.6602 58.4102 123.92 127.59 123.92h111.2c17.6699 0 32 -14.3301 32 -32c0 -11.3799 -2.99023 -22.25 -8.37988 -31.7002l0.239258 -0.299805h96.9209zM464.01 352c0 -8.83984 -7.16992 -16 -16 -16c-8.83984 0 -16 7.16016 -16 16s7.16016 16 16 16
s16 -7.16016 16 -16z" />
    <glyph glyph-name="apple-crate" unicode="&#xf6b1;" 
d="M402.22 397.53c-12.25 -11.4307 -31.5498 -14.5107 -50.0195 -13.2803c-0.549805 3.86035 -3.31055 33.6201 13.2197 50.2197c14.3496 13.4004 37.1396 14.1406 50.0205 13.2803c1.20996 -18.1904 -1.93066 -38.0303 -13.2207 -50.2197zM496 224
c8.83984 0 16 -7.16016 16 -16v-256c0 -8.83984 -7.16016 -16 -16 -16h-480c-8.83984 0 -16 7.16016 -16 16v256c0 8.83984 7.16016 16 16 16h25.1797c-2.75977 8.11035 -5.17969 16.5596 -6.73926 25.8203c-13.46 72.3994 25 156.14 125.569 99.8799
c65.6602 36.7402 94.75 7.63965 95.9404 6.71973c1.18945 0.919922 30.0596 30.0303 95.7402 -6.71973c100.359 56.1494 139.189 -26.54 125.56 -99.8799c-1.57031 -9.26074 -3.98047 -17.71 -6.74023 -25.8203h25.4902zM336.06 321.77
c-9.65918 5.41016 -45.6699 20.7803 -60.4795 10.1709c12.5 -25.6504 14.2402 -59.2207 9.97949 -82.1201c-1.55957 -9.26074 -3.97949 -17.71 -6.73926 -25.8203h157.199c4.16016 9.38965 7.69043 19.4404 9.6709 31.1504
c3.87988 20.8896 1.40918 51.9492 -10.6309 69.3691c-0.649414 0.94043 -13.0195 27.8809 -67.7598 -2.75l-15.6201 -8.73926zM76.75 324.57c-11.6699 -16.8906 -14.6797 -48.3008 -10.8604 -68.9102c2.04004 -12.0303 5.60059 -22.21 9.77051 -31.6602h168.68
c4.16016 9.37988 7.69043 19.4404 9.66992 31.1504c3.87988 20.8896 1.41016 51.9492 -10.6299 69.3691c-0.649414 0.94043 -13.0195 27.8809 -67.7598 -2.75l-15.6201 -8.73926l-15.6201 8.73926c-54.7598 30.6406 -66.9795 3.74023 -67.6299 2.80078zM480 -32v96h-448v-96
h448zM480 96v96h-448v-96h448zM80 128c-8.83984 0 -16 7.16016 -16 16s7.16016 16 16 16s16 -7.16016 16 -16s-7.16016 -16 -16 -16zM80 0c-8.83984 0 -16 7.16016 -16 16s7.16016 16 16 16s16 -7.16016 16 -16s-7.16016 -16 -16 -16zM432 128
c-8.83984 0 -16 7.16016 -16 16s7.16016 16 16 16s16 -7.16016 16 -16s-7.16016 -16 -16 -16zM432 0c-8.83984 0 -16 7.16016 -16 16s7.16016 16 16 16s16 -7.16016 16 -16s-7.16016 -16 -16 -16zM210.53 397.53c-12.25 -11.4307 -31.5498 -14.5107 -50.0205 -13.2803
c-0.549805 3.86035 -3.30957 33.6201 13.2207 50.2197c14.3496 13.4004 37.1396 14.1406 50.0195 13.2803c1.20996 -18.1904 -1.92969 -38.0303 -13.2197 -50.2197z" />
    <glyph glyph-name="axe" unicode="&#xf6b2;" horiz-adv-x="640" 
d="M525.74 288h114.26v-32c0 -123.71 -100.29 -224 -224 -224h-32v114.26l-47.2695 47.2705l-248.16 -248.16c-6.25 -6.25 -14.4404 -9.37012 -22.6299 -9.37012c-8.19043 0 -16.3809 3.12012 -22.6309 9.37012l-33.9395 33.9395c-12.5 12.5 -12.5 32.7607 0 45.2607
l248.16 248.16l-24.1602 24.1592c-12.5 12.4902 -12.5 32.75 0 45.25l96.4902 96.4902c6.25 6.25 14.4395 9.37012 22.6299 9.37012c8.18945 0 16.3799 -3.12012 22.6299 -9.37012l24.1494 -24.1602l24.1602 24.1602c6.25 6.25 14.4404 9.37012 22.6299 9.37012
c8.19043 0 16.3809 -3.12012 22.6309 -9.37012l33.9395 -33.9395c12.5 -12.5 12.5 -32.7607 0 -45.2607l-24.1602 -24.1602zM446.03 416l-24.1406 -24.1396l33.9502 -33.96l24.1602 24.1592l-33.9404 33.9404h-0.0292969zM65.9404 -32l248.159 248.16l-33.9395 33.9395
l-248.16 -248.159zM416 64c105.87 0 192 86.1299 192 192h-95.5098l-160 160h-0.0302734l-96.46 -96.4902l160 -160v-95.5098z" />
    <glyph glyph-name="axe-battle" unicode="&#xf6b3;" 
d="M512 287.08l-32 -31.0801l32 -31.0801c-6.76953 -61.7695 -35.1201 -116.63 -74.2002 -156.22c-3.17969 -3.21973 -7.01953 -4.7002 -10.8096 -4.7002c-7.07031 0 -13.9502 5.13965 -15.9902 13.6602c-13.3301 55.54 -55.2598 97.4297 -107 104.78v-230.44
c0 -8.83984 -7.16016 -16 -16 -16h-64c-8.83984 0 -16 7.16016 -16 16v230.44c-51.7402 -7.34082 -93.6699 -49.2402 -107 -104.78c-2.04004 -8.52051 -8.91992 -13.6602 -15.9902 -13.6602c-3.7793 0 -7.62988 1.46973 -10.8096 4.7002
c-45.5303 46.1299 -74.2002 112.92 -74.2002 187.3s28.6699 141.17 74.2002 187.3c3.17969 3.21973 7.01953 4.7002 10.8096 4.7002c7.07031 0 13.9502 -5.13965 15.9902 -13.6602c13.3301 -55.54 55.2598 -97.4297 107 -104.78v38.4404c0 8.83984 7.16016 16 16 16h64
c8.83984 0 16 -7.16016 16 -16v-38.4404c51.7402 7.34082 93.6699 49.2402 107 104.78c2.04004 8.52051 8.91992 13.6602 15.9902 13.6602c3.7793 0 7.62988 -1.48047 10.8096 -4.7002c39.0801 -39.5898 67.4307 -94.4502 74.2002 -156.22zM78.6504 112.44
c6.93945 17.0098 38.5293 89.4297 129.35 102.319v82.4707c-90.8203 12.8994 -122.42 85.3193 -129.35 102.329c-29.8906 -39.7295 -46.6504 -90.6396 -46.6504 -143.56s16.7598 -103.83 46.6504 -143.56zM272 -32v384h-32v-384h32zM457.04 233.71l-21.6299 22.29
l21.6299 22.2803l19.29 19.8701c-6.37988 37.5801 -21.2197 72.4893 -42.9697 101.409c-6.94043 -17.0098 -38.5303 -89.4297 -129.351 -102.329v-82.4707c90.8203 -12.8994 122.41 -85.3193 129.351 -102.33c21.75 28.9199 36.5898 63.8398 42.9697 101.41z" />
    <glyph glyph-name="bat" unicode="&#xf6b5;" horiz-adv-x="640" 
d="M638.61 160.75c5.65918 -12.6904 -6.94043 -25.8496 -20.5801 -21.4697l-16.4805 5.26953c-6.93945 2.21973 -14.0498 3.29004 -21.0693 3.29004c-21.8301 0 -42.8506 -10.3398 -55.4609 -28.5098l-38.4092 -55.3301l-12.3008 11.8203
c-13.1094 12.5898 -30.1396 18.75 -47.0898 18.75c-20.1299 0 -40.1494 -8.69043 -53.3594 -25.6006l-53.8604 -68.9697l-53.8496 68.9697c-13.21 16.9102 -33.2305 25.6006 -53.3604 25.6006c-16.9502 0 -33.9805 -6.16016 -47.0898 -18.75l-12.3105 -11.8203
l-38.4092 55.3203c-12.6104 18.1797 -33.6309 28.5098 -55.4609 28.5098c-7.34375 0 -14.4268 -1.16406 -21.0693 -3.29004l-16.4805 -5.27051c-13.6396 -4.36914 -26.2393 8.79004 -20.5801 21.4805l70.3203 157.56c5.46973 12.2705 17.8398 19.4004 30.6699 19.4004
c5.7998 0 11.7002 -1.45996 17.1006 -4.57031l104.899 -60.4395l31.6201 111.3l50.1201 -48h27.7695l50.1104 48l31.6299 -111.31l104.9 60.4395c5.39941 3.11035 11.29 4.57031 17.0996 4.57031c12.8203 0 25.1904 -7.12988 30.6699 -19.4004zM580.48 179.83
c4.61914 0 9.21973 -0.299805 13.7695 -0.919922l-56.5801 126.78l-143.47 -82.6602l-26.0498 100.06l-20.9902 -19.0996h-54.3301l-20.9902 19.0996l-26.0498 -100.06l-143.47 82.6602l-56.5801 -126.78c4.55957 0.609375 9.14941 0.919922 13.7695 0.919922
c33.5098 0 64.6006 -15.9902 83.1904 -42.7598l17.3193 -24.9502c15.6904 9.41016 33.8203 14.4395 52.7607 14.4395c31.7998 0 60.96 -14 80.0195 -38.3994l27.2002 -34.8301l27.2002 34.8301c19.0498 24.3994 48.2197 38.3994 80.0098 38.3994
c18.9404 0 37.0703 -5.0293 52.7598 -14.4395l17.3203 24.9502c18.5898 26.7793 49.6904 42.7598 83.1904 42.7598z" />
    <glyph glyph-name="blender-phone" unicode="&#xf6b6;" horiz-adv-x="576" 
d="M486.25 103.97c33.96 -14.79 57.75 -48.5693 57.75 -87.9697v-48c0 -17.6699 -14.3301 -32 -32 -32h-320c-17.6699 0 -32 14.3301 -32 32v48c0 40.9297 25.7197 75.6201 61.79 89.4404l-29.79 342.56h384zM534.58 416h-307.68l26.4395 -304h201.93l29.2207 112h-124.49
c-4.41992 0 -8 3.58008 -8 8v16c0 4.41992 3.58008 8 8 8h132.84l16.7002 64h-149.54c-4.41992 0 -8 3.58008 -8 8v16c0 4.41992 3.58008 8 8 8h157.88zM512 -32v48c0 35.29 -28.71 64 -64 64h-192c-35.29 0 -64 -28.71 -64 -64v-48h320zM352 48
c13.2598 0 24 -10.7402 24 -24c0 -13.25 -10.7402 -24 -24 -24s-24 10.75 -24 24c0 13.2598 10.7402 24 24 24zM176.43 130.92c5.7207 -14.0898 0.44043 -30.0898 -12.5996 -38.0703l-36.0898 -22.1592c-7.33984 -4.5 -15.9707 -6.6709 -24.5605 -6.6709
c-12.8096 0 -25.5 4.83008 -33.8096 13.9404c-91.6797 100.31 -92.5898 252.39 -2.06055 353.72c15.6201 17.46 41.1201 21.3301 60.5303 9.44043l36.04 -22.0898c13 -7.95996 18.2803 -23.96 12.5605 -38.0498l-23.6602 -58.0205
c-5.16016 -12.7197 -18.4404 -20.75 -32.1602 -19.2803l-28.5605 2.80078c-4.67871 -16.0264 -7.18848 -32.9277 -7.18848 -50.4561c0 -17.5664 2.52051 -34.5488 7.21875 -50.6045l28.5303 2.7998c14.1299 1.48047 27.0303 -6.60938 32.1895 -19.3301zM110.99 97.9805
l35.4795 21.75l-23.3096 57.1094l-53 -5.71973l-4.25 11.5898c-17.4102 47.2402 -17.4102 99.25 0 146.47l4.25 11.5898l53.5898 -5.25l23.0596 57.5205l-35.7197 20.7998c-2.34961 1.4502 -5 2.14062 -7.66016 2.14062c-4.46973 0 -8.96973 -1.93066 -12.25 -5.62012
c-79.5596 -89.0303 -78.7793 -222.66 1.81055 -310.82c3.66016 -4.00977 12.8096 -4.80957 18 -1.55957z" />
    <glyph glyph-name="book-dead" unicode="&#xf6b7;" horiz-adv-x="448" 
d="M216 288c-8.7998 0 -16 7.2002 -16 16s7.2002 16 16 16s16 -7.2002 16 -16s-7.2002 -16 -16 -16zM264 288c-8.7998 0 -16 7.2002 -16 16s7.2002 16 16 16s16 -7.2002 16 -16s-7.2002 -16 -16 -16zM176 244.6c-20.4004 15.1006 -32 36.4004 -32 59.4004
c0 44.0996 43.0996 80 96 80s96 -35.9004 96 -80c0 -23 -11.5996 -44.2998 -32 -59.4004v-12.5996c0 -13.2002 -10.7998 -24 -24 -24h-80c-13.2002 0 -24 10.7998 -24 24v12.5996zM240 352c-35.2998 0 -64 -21.5 -64 -48c0 -14.2998 8.90039 -27.9004 24.2998 -37.2002
l7.7002 -4.7002v-22.0996h64v22.0996l7.7002 4.7002c15.5 9.2998 24.2998 22.9004 24.2998 37.2002c0 26.5 -28.7002 48 -64 48zM448 56c0 -10 -6.2002 -18.5996 -14.9004 -22.2002c-3.59961 -16.0996 -4.39941 -45.5996 -0.399414 -65.7998h3.2998
c6.59961 0 12 -5.40039 12 -12v-8c0 -6.59961 -5.40039 -12 -12 -12h-372c-35.2998 0 -64 28.7002 -64 64v368c0 44.2002 35.7998 80 80 80h344c13.2998 0 24 -10.7002 24 -24v-368zM404.3 -32c-3.09961 20.4004 -2.89941 45.2002 0 64h-340.3
c-17.7002 0 -32 -14.2998 -32 -32s14.2998 -32 32 -32h340.3zM416 64v352h-336c-26.5 0 -48 -21.5 -48 -48v-312.9c9.5 5.5 20.2998 8.90039 32 8.90039h352zM124.8 115.6c-1.7002 4 0.200195 8.7002 4.2002 10.5l70.4004 30l-70.3008 30.2002
c-4.09961 1.7002 -5.89941 6.40039 -4.19922 10.5l6.2998 14.7002c1.7002 4.09961 6.39941 5.90039 10.5 4.2002l98.2998 -42.1006l98.2998 42.3008c4.10059 1.69922 8.7998 -0.100586 10.5 -4.2002l6.2998 -14.7002c1.7002 -4.09961 -0.0996094 -8.7998 -4.19922 -10.5
l-70.3008 -30.2002l70.3008 -30.0996c4.09961 -1.7002 5.89941 -6.40039 4.19922 -10.5l-6.2998 -14.7002c-1.7002 -4.09961 -6.39941 -5.90039 -10.5 -4.2002l-98.3994 42.1006l-98.3008 -42.2002c-4.09961 -1.7002 -8.7998 0.0996094 -10.5 4.2002z" />
    <glyph glyph-name="book-spells" unicode="&#xf6b8;" horiz-adv-x="448" 
d="M64 304c0 6.05957 3.44043 11.5898 8.83984 14.3096l37.8799 18.9404l18.9707 37.9102c2.71973 5.41992 8.25 8.83984 14.3096 8.83984s11.5898 -3.41992 14.3096 -8.83984l18.9404 -37.9102l37.9102 -18.9404c5.39941 -2.69922 8.83984 -8.25 8.83984 -14.3096
s-3.42969 -11.6104 -8.83984 -14.3096l-37.9102 -18.9404l-18.9404 -37.9102c-2.71973 -5.41992 -8.25 -8.83984 -14.3096 -8.83984s-11.5898 3.41992 -14.3096 8.83984l-18.9707 37.9102l-37.8799 18.9404c-5.39941 2.71973 -8.83984 8.25 -8.83984 14.3096zM129.81 311.02
l-14.0293 -7.01953l14.0293 -7.01953c3.09961 -1.55762 5.60352 -4.06055 7.16016 -7.16016l7.03027 -14.0508l7 14.0508c1.55957 3.09766 4.0625 5.59961 7.16016 7.16016l14.0303 7.01953l-14.0303 7.01953c-3.10059 1.55078 -5.60059 4.07031 -7.16016 7.16016
l-7 14.0508l-7.03027 -14.0508c-1.55957 -3.09766 -4.0625 -5.59961 -7.16016 -7.16016zM192 192c0 6.05957 3.44043 11.5898 8.83984 14.3096l48.5605 24.2803l24.2793 48.5605c5.43066 10.8398 23.1807 10.8398 28.6201 0l24.2803 -48.5605l48.5596 -24.2803
c5.40039 -2.71973 8.84082 -8.25 8.84082 -14.3096s-3.43066 -11.5898 -8.84082 -14.3096l-48.5596 -24.2803l-24.2803 -48.5605c-2.71973 -5.41992 -8.25 -8.83984 -14.3096 -8.83984c-6.06055 0 -11.5898 3.41992 -14.3105 8.83984l-24.2793 48.5605l-48.5605 24.2803
c-5.39941 2.71973 -8.83984 8.25 -8.83984 14.3096zM268.5 204.36l-24.7197 -12.3604l24.7197 -12.3604c3.09961 -1.55664 5.60254 -4.06055 7.16016 -7.15918l12.3398 -24.7002l12.3398 24.7002c1.56055 3.09668 4.0625 5.59961 7.16016 7.15918l24.7197 12.3604
l-24.7197 12.3604c-3.09961 1.5498 -5.59961 4.06934 -7.16016 7.15918l-12.3398 24.7002l-12.3398 -24.7002c-1.56055 -3.09668 -4.0625 -5.59961 -7.16016 -7.15918zM448 56c0 -10 -6.2002 -18.5996 -14.9004 -22.2002
c-3.59961 -16.0996 -4.39941 -45.5996 -0.399414 -65.7998h3.2998c6.59961 0 12 -5.40039 12 -12v-8c0 -6.59961 -5.40039 -12 -12 -12h-372c-35.3496 0 -64 28.6504 -64 64v368c0 44.2002 35.7998 80 80 80h344c13.2998 0 24 -10.7002 24 -24v-368zM404.3 -32
c-3.09961 20.4004 -2.89941 45.2002 0 64h-340.3c-17.6699 0 -32 -14.3301 -32 -32s14.3301 -32 32 -32h340.3zM416 64v352h-336c-26.5 0 -48 -21.5 -48 -48v-312.88c9.4502 5.5 20.2803 8.87988 32 8.87988h352z" />
    <glyph glyph-name="bow-arrow" unicode="&#xf6b9;" 
d="M403.77 271.89c62.75 -92.1396 58.6504 -216.13 -12.21 -304.17l6.76074 -6.75977c1.4502 -1.44629 2.34863 -3.44824 2.34863 -5.65625s-0.898438 -4.20801 -2.34863 -5.65332l-11.3105 -11.3105c-3.12012 -3.12012 -8.18945 -3.12012 -11.3096 0l-152.75 152.73
l22.6299 22.6299l123.1 -123.101c58.4502 75.0703 62.0801 178.83 11.6201 257.82zM155.08 158.96l-152.74 152.74c-1.4502 1.44629 -2.34863 3.44824 -2.34863 5.65625s0.898438 4.20703 2.34863 5.65332l11.3203 11.3301c3.12012 3.12012 8.17969 3.12012 11.3096 0
l6.77051 -6.76953c88.0293 70.8594 212.02 74.96 304.16 12.21l-23.4707 -23.4707c-78.9893 50.46 -182.75 46.8203 -257.819 -11.6191l123.1 -123.101zM496.36 448c9.59961 0 17.3096 -8.86035 15.3301 -18.7695l-25.71 -128.591
c-1.58008 -7.90918 -8.4209 -12.6299 -15.4609 -12.6299c-3.89941 0 -7.85938 1.4502 -11.0195 4.61035l-40.1299 40.1201l-252.37 -252.37l23.96 -53.6201c0.680664 -2.04199 1.05762 -4.23242 1.05762 -6.50195c0 -5.6748 -2.30469 -10.8164 -6.02734 -14.5381
l-63.6699 -63.6699c-4.11035 -4.11035 -9.33008 -6.03027 -14.4707 -6.03027c-8.37988 0 -16.5801 5.08008 -19.5693 14.0605l-18.5498 55.6494l-55.6602 18.5498c-14.5 4.84082 -18.8398 23.2402 -8.04004 34.04l63.6602 63.6807
c3.71875 3.71973 8.8623 6.0127 14.5322 6.0127c2.27441 0 4.46191 -0.370117 6.50781 -1.05273l53.6299 -23.96l252.37 252.37l-40.1201 40.1201c-8.86035 8.86914 -4.27051 24.0293 8.01953 26.4893l128.601 25.7207c1.05957 0.209961 2.09961 0.30957 3.12988 0.30957z
M112.77 -22.25l44.9209 44.9404l-21.9307 49.0898l-49.0898 21.9297l-44.9297 -44.9297l38.0898 -12.7002l15.1797 -5.06055l5.06055 -15.1797zM460.57 336.78l14.9395 74.7295l-74.7295 -14.9502z" />
    <glyph glyph-name="campfire" unicode="&#xf6ba;" 
d="M256 128c-79.5303 0 -144 64.4697 -144 144c0 44.7803 44.8301 119.02 108 176c24.6104 -22.21 46.3398 -46.0098 63.8604 -69.4805c10.6895 12.7305 22.7695 25.4209 36.1396 37.4805c46.5801 -42.04 80 -110.71 80 -144c0 -79.5303 -64.4697 -144 -144 -144z
M220.1 403.58c-48.0498 -49.9502 -76.0996 -103.83 -76.0996 -131.58c0 -61.7598 50.2402 -112 112 -112s112 50.2402 112 112c0 16.79 -18.04 61.4697 -48.6396 98.4199c-3.76074 -4.05957 -7.43066 -8.22949 -10.9902 -12.4697l-25.9805 -30.9502l-24.1699 32.3701
c-11.0801 14.8398 -24.0098 29.8301 -38.1201 44.21zM295.91 48l211.3 -82.0303c2.82227 -1.23633 4.78516 -4.05664 4.78516 -7.33301c0 -1.13574 -0.237305 -2.21777 -0.665039 -3.19629l-6.40039 -14.6504c-1.76953 -4.0498 -6.48926 -5.88965 -10.54 -4.12012
l-238.39 93.8701l-238.38 -93.8604c-4.0498 -1.7793 -8.77051 0.0703125 -10.54 4.12012l-6.40039 14.6504c-0.428711 0.979492 -0.676758 2.06445 -0.676758 3.20215c0 3.27539 1.97461 6.09277 4.79688 7.32812l211.29 82.0195l-211.3 82.0195
c-2.82227 1.23633 -4.78516 4.05762 -4.78516 7.33301c0 1.13672 0.237305 2.21777 0.665039 3.19727l6.40039 14.6504c1.23535 2.82715 4.06055 4.79492 7.3418 4.79492c1.13672 0 2.21777 -0.237305 3.19824 -0.665039l238.39 -93.8701l238.39 93.8701
c0.980469 0.427734 2.06445 0.674805 3.20117 0.674805c3.28027 0 6.10352 -1.97754 7.33887 -4.80469l6.40039 -14.6504c0.429688 -0.980469 0.677734 -2.06543 0.677734 -3.2041c0 -3.27539 -1.97461 -6.09277 -4.79785 -7.32617z" />
    <glyph glyph-name="campground" unicode="&#xf6bb;" horiz-adv-x="640" 
d="M632 -32c4.41992 0 8 -3.58008 8 -8v-16c0 -4.41992 -3.58008 -8 -8 -8h-624c-4.41992 0 -8 3.58008 -8 8v16c0 4.41992 3.58008 8 8 8h24l268.26 370.81l-63 87.0908c-2.59961 3.56934 -1.7998 8.56934 1.77051 11.1699l12.9297 9.39941
c1.31934 0.959961 2.94629 1.53809 4.70215 1.53809c2.66309 0 5.02344 -1.30371 6.47754 -3.30762l56.8604 -78.6006l56.8604 78.6006c2.59961 3.58008 7.60938 4.37012 11.1797 1.76953l12.9297 -9.39941c3.57031 -2.60059 4.37012 -7.60059 1.77051 -11.1699
l-63 -87.0908l268.26 -370.81h24zM222.19 -32h195.619l-97.8096 136.94zM457.15 -32h111.359l-248.51 343.52l-248.51 -343.52h111.359l124.131 173.77c6.37988 8.93066 19.6592 8.93066 26.0391 0z" />
    <glyph glyph-name="candle-holder" unicode="&#xf6bc;" horiz-adv-x="448" 
d="M160 256c-45.9297 0 -78 32.6104 -78 79.29c0 29.8701 32.3799 74.71 78 112.71c45.4102 -37.8203 78 -82.7197 78 -112.71c0 -46.6797 -32.0703 -79.29 -78 -79.29zM160 404.93c-31.5596 -30.9697 -46 -58.2598 -46 -69.6299c0 -29.1699 17.6299 -47.29 46 -47.29
s46 18.1201 46 47.29c0 11.3701 -14.4404 38.6602 -46 69.6299zM384 64c35.3496 0 64 -28.6504 64 -64s-28.6504 -64 -64 -64h-376c-4.41992 0 -8 3.58008 -8 8v16c0 4.41992 3.58008 8 8 8h56v224c0 17.6699 14.3301 32 32 32h128c17.6699 0 32 -14.3301 32 -32v-224
h72.8799c-5.5 9.4502 -8.87988 20.2803 -8.87988 32c0 35.3496 28.6504 64 64 64zM224 -32v224h-64v-48c0 -8.83984 -7.16016 -16 -16 -16s-16 7.16016 -16 16v48h-32v-224h128zM384 -32c17.6396 0 32 14.3604 32 32s-14.3604 32 -32 32s-32 -14.3604 -32 -32
s14.3604 -32 32 -32z" />
    <glyph glyph-name="cauldron" unicode="&#xf6bf;" horiz-adv-x="448" 
d="M272 320c-26.5098 0 -48 21.4902 -48 48s21.4902 48 48 48s48 -21.4902 48 -48s-21.4902 -48 -48 -48zM272 384c-8.82031 0 -16 -7.17969 -16 -16s7.17969 -16 16 -16s16 7.17969 16 16s-7.17969 16 -16 16zM448 264c0 -4.41992 -3.58008 -8 -8 -8h-46.7305
c33.9502 -45.7803 54.7305 -101.62 54.7305 -153.6c0 -39.0801 -11.8203 -70.6504 -32 -95.5303v-54.8701c0 -8.83984 -7.16016 -16 -16 -16s-16 7.16016 -16 16v25.3301c-40.6602 -28.0205 -97.29 -41.3301 -160 -41.3301c-62.7197 0 -119.34 13.3096 -160 41.3398
v-25.3398c0 -8.83984 -7.16016 -16 -16 -16s-16 7.16016 -16 16v54.8701c-20.1797 24.8799 -32 56.4502 -32 95.5303c0 51.9795 20.7803 107.819 54.7305 153.6h-46.7305c-4.41992 0 -8 3.58008 -8 8v16c0 4.41992 3.58008 8 8 8h432c4.41992 0 8 -3.58008 8 -8v-16z
M416 102.4c0 52.25 -24.1396 110.02 -63.6504 153.6h-256.71c-39.5 -43.5801 -63.6396 -101.35 -63.6396 -153.6c0 -121.301 134.27 -134.4 192 -134.4s192 13.0996 192 134.4zM160 384c-17.6699 0 -32 14.3301 -32 32s14.3301 32 32 32s32 -14.3301 32 -32
s-14.3301 -32 -32 -32z" />
    <glyph glyph-name="claw-marks" unicode="&#xf6c2;" 
d="M509.64 -29.5303c5.06055 -10.7793 1.78027 -23.0801 -7.98926 -29.9297c-4.31055 -3.0498 -9.2207 -4.53027 -14.0605 -4.53027c-6.18945 0 -12.3096 2.41992 -17.0303 7.19043l-87.7998 85.3701c-2.75 2.75 -6.37012 4.25 -10.0596 4.25l-53.0205 -1.14062
l1.12012 53.3906c0 3.38965 -1.46973 6.89941 -4.08984 9.54004l-75.0801 77.5098c-2.41016 2.39941 -6 3.89941 -9.68945 3.89941h-55.8906v51.8906c0.0703125 5.43945 0.100586 9.18945 -0.339844 10.25l-168.44 168.35
c-8.5293 8.54004 -9.62988 21.3906 -2.68945 31.2305c6.87988 9.71973 19.25 12.9697 30 7.85938c293.54 -139.29 428.979 -376.479 473.59 -472.01zM405.22 51.3398l55.0898 -53.5996c-53.6494 100.75 -173.25 277.33 -396.05 397.029l134.311 -134.319
c9.75 -9.74023 9.58984 -21.9199 9.5 -29.9697l-0.0302734 -22.4502h23.9004c12.2793 0 23.7998 -4.78027 32.4893 -13.4707l75.0801 -77.5098c8.5 -8.5 13.2803 -20.0498 13.2803 -32.3301l-0.44043 -20.3301l20 0.419922h0.0302734
c12.4404 0 24.2803 -4.90918 32.8398 -13.4697zM29.5195 236c55.3301 -26.2598 192.49 -105.23 270.5 -270.62c4.28027 -9.05957 1.41016 -19.8096 -6.80957 -25.5596c-3.58984 -2.53027 -7.75 -3.78027 -11.8701 -3.78027c-5.30957 0 -10.5898 2.05957 -14.5898 6.05957
l-118.85 100.95c-3.59082 3.52051 -7.09082 4.96973 -10.8408 4.96973h-56.9893v57c0 3.75 -1.4707 7.27051 -4.08984 9.91016l-71.0205 89.1699c-5.90039 5.77051 -6.87012 16.9404 -1.05957 25.1699c3.7168 5.28809 9.87012 8.71484 16.8184 8.71484
c3.13672 0 6.11035 -0.704102 8.77148 -1.96484zM169.58 66.5596l72.4795 -61.5791c-54.4893 87.4795 -125.279 143.18 -177.46 175.399l35.21 -44.1797c7.4707 -7.33008 12.25 -18.8701 12.25 -31.1699v-25h24.9902c12.2803 0 23.8398 -4.78027 32.5303 -13.4707z
M313.77 340.71l-53.6396 75.4404c-5.12988 4.7998 -6.03027 15.5293 -0.439453 23.4697c5.58984 7.88965 15.9297 10.5703 24.6494 6.4502c46.21 -21.9502 160.66 -87.8604 225.73 -225.82c4.08984 -8.66992 1.37012 -19.0098 -6.5 -24.5596
c-3.5 -2.45996 -7.5 -3.66016 -11.5 -3.66016c-5.10059 0 -10.1602 1.96973 -14 5.80957l-104.04 82.75c-3 2.86035 -5.28027 3.7998 -7.62012 3.7998l-44.7998 5.23047l-5.09082 42.8994c-0.129883 4.24023 -1.05957 6.52051 -2.75 8.19043zM451.06 260.08
c-41.9893 63.5703 -94.04 105.65 -134.409 131.43l21.5293 -30.25c5.9707 -5.68945 10.2207 -15.9502 10.2207 -26.8398l1.96973 -16l17.96 -2.13965h0.30957c8.84082 0 19.21 -4.35059 26.71 -11.8701z" />
    <glyph glyph-name="coffee-togo" unicode="&#xf6c5;" horiz-adv-x="448" 
d="M432 384c8.83984 0 16 -7.16016 16 -16v-64c0 -8.83984 -7.16016 -16 -16 -16h-18.6699l-26.8896 -322.66c-1.38086 -16.5801 -15.25 -29.3398 -31.8906 -29.3398h-261.109c-16.6406 0 -30.5 12.7598 -31.8809 29.3398l-26.8896 322.66h-18.6699
c-8.83984 0 -16 7.16016 -16 16v64c0 8.83984 7.16016 16 16 16h16l23.1602 46.3096c5.25 10.502 16.0898 17.6895 28.6201 17.6904h280.439c12.5303 -0.000976562 23.3701 -7.18848 28.6201 -17.6904l23.1602 -46.3096h16zM354.56 -32l5.33008 64h-271.779l5.33008 -64
h261.119zM362.56 64l10.6709 128h-298.45l10.6602 -128h277.119zM375.89 224l5.34082 64h-314.45l5.33008 -64h303.779zM416 320v32h-19.7695l-32 64h-280.45l-32 -64h-19.7803v-32h384z" />
    <glyph glyph-name="corn" unicode="&#xf6c7;" 
d="M446.02 448c58.6309 0 82.2402 -65.2002 54.2305 -105.98c1.24512 -5.07031 1.89941 -10.3311 1.89941 -15.7842c0 -6.50195 -0.939453 -12.7871 -2.68945 -18.7256c-3.18066 -10.2695 -8.76367 -19.4902 -16.1201 -26.9697
c0.700195 -10.4697 -1.16016 -21.1201 -5.62988 -31.0498c-4.33984 -9.65039 -10.9102 -17.9404 -19.0195 -24.3506c-0.580078 -10.0996 -3.55078 -20.04 -8.84082 -28.9395c-5.13281 -9.02539 -12.2646 -16.5898 -20.9395 -22.2402
c-1.36035 -8.84961 -4.83008 -17.3096 -9.79004 -25.0596c9.71973 -7.05078 19.0801 -14.7002 27.7402 -23.3604l21.1396 -21.1396c9.03027 -9.03027 4.34961 -24.4902 -8.17969 -27l-118.801 -23.7607l-81.3193 -81.3398
c-16.5098 -16.5098 -37.0703 -29.0098 -59.9307 -33.7598c-38.5391 -8.02051 -75.9297 3.30957 -103.31 28.8799l-0.280273 -0.280273l-62.21 62.2305c-24.4102 24.4102 -36.5996 57.7803 -33.5 92.6895c2.51074 28.29 16.5107 54.3604 36.5898 74.4502l80.5508 80.5605
l23.7598 118.81c2.5 12.5303 17.96 17.21 27 8.16992l21.1299 -21.1396c8.50977 -8.5 16.0303 -17.7002 22.9902 -27.2402c0.0898438 0.0703125 0.149414 0.169922 0.240234 0.230469c8.48926 6.05957 18.1396 9.93945 28.3193 11.4297
c5.49023 8.33984 12.8604 15.3604 21.6104 20.3203c8.74512 5.18262 18.9268 8.41699 29.6797 8.98926c6.52051 8.07031 15.0205 14.6904 25.04 19.2002c12.9199 5.49023 24.2305 5.54004 30.4697 5.10059c7.63867 7.40332 17.0996 12.9512 27.6104 15.9492
c6.74023 1.99023 19.54 4.57031 34.8896 0.490234c10.4004 6.82031 22.7207 10.6201 35.6699 10.6201zM56.5996 170.79c-31.8398 -31.8301 -32.5 -82.71 -2.54004 -115.69l70.4102 70.4307c26.9404 26.9502 59.4502 46.3193 94.9199 57.04
c12.8408 62.2695 -4.17969 129.39 -52.5098 177.72l-19.79 -98.9902zM424.23 102.91c-38.2705 38.2695 -88.4209 57.4102 -138.58 57.4102c-50.1504 0 -100.301 -19.1406 -138.57 -57.4102l-70.7002 -70.71l39.5898 -39.6006
c16.4004 -16.3994 37.9004 -24.5996 59.3906 -24.5996c21.5 0 42.9893 8.2002 59.3896 24.5996l90.5 90.5107zM461.39 349.16c10.4502 5.35938 17.9404 16.0703 18.4805 28.9199c0 38.8701 -33.3301 37.9199 -33.8506 37.9199
c-12.5791 0 -23.6895 -6.99023 -29.3496 -17.8203c-13.5 13.0605 -29.1396 8.91992 -32.1396 8.03027c-11.25 -3.21973 -19.8105 -11.79 -23.0303 -22.5c-6.17969 4 -18.1504 8.38965 -31.6104 2.67969c-10.71 -4.81934 -17.6699 -14.46 -19.5498 -24.9092
c-0.410156 0.199219 -15.5098 8.05957 -31.3301 -1.33008c-9.91016 -5.62012 -15.7998 -15.8105 -16.6094 -26.25c-4.91016 1.84961 -19.0107 5.65918 -32.4902 -5.56055c17.2197 -32.4697 26.3799 -68.8398 26.3799 -106.63c0 -10.79 -1.07031 -21.3896 -2.59961 -31.8701
c10.5195 1.46973 21.1592 2.48047 31.9795 2.48047c37.7598 0 74.1104 -9.16016 106.55 -26.3604c5.90039 9.12988 6.87012 20 3.29004 29.4502c10.71 0.80957 20.8906 6.7002 26.5205 16.6094c5.87988 9.91016 6.16016 21.6904 1.33008 31.3301
c10.71 1.88086 20.3398 8.58008 25.1699 19.29c4.81934 10.71 3.46973 22.5 -2.41016 31.6104c10.4395 3.20996 19.2803 11.5098 22.7695 22.7598c3.48047 11.79 0 23.8398 -7.5 32.1504z" />
    <glyph glyph-name="cow" unicode="&#xf6c8;" horiz-adv-x="640" 
d="M634.06 168.33c3.86035 -5.41992 5.94043 -11.9102 5.94043 -18.5605v-87.6895c0 -34.29 -27.79 -62.0801 -62.0801 -62.0801h-0.110352c-21.8779 0 -41.0938 11.2793 -52.1494 28.4004l-35.46 54.8994c-6.69043 10.3398 -10.2402 22.4004 -10.2402 34.7197v41.9805
l-31.96 15.96l-0.0400391 -143.97c0 -17.6699 -14.3301 -31.9902 -32 -31.9902h-47.96c-17.6699 0 -32 14.3301 -32 32v51.5801c-7.28027 -2.91016 -15.5703 -4.9502 -23.96 -6.83008v-20.75c0 -8.83984 -7.16016 -16 -16 -16s-16 7.16016 -16 16v16.7197
c-2.75 -0.109375 -5.23047 -0.719727 -8.04004 -0.719727c-2.78027 0 -5.23047 0.589844 -7.95996 0.709961v-16.71c0 -8.83984 -7.16016 -16 -16 -16s-16 7.16016 -16 16v20.7305c-8.41992 1.87988 -16.7305 3.92969 -24.04 6.84961v-51.5801
c0 -17.6699 -14.3301 -32 -32 -32h-48c-17.6699 0 -32 14.3301 -32 32v288c0 11.4102 3.23047 21.96 8.45996 31.2402c-22.8701 -3.65039 -40.46 -23.3506 -40.46 -47.2402v-112c0 -35.3496 -28.6504 -64 -64 -64v32c0 23.6299 12.9502 44.04 32 55.1201v88.8799
c0 44.1104 35.8799 80 80 80h318.95c31.9932 0 60.3047 -15.5928 77.7598 -39.6797l56.5996 -79.46c9.36035 4.70996 14.5303 7.64941 23.6104 7.64941c19.3398 0 35.0801 -15.7402 35.0801 -35.0898v-54.96zM212.73 352c-17.54 0 -27.1201 -19.7803 -15.9004 -32.7998
c40.3096 -46.7705 56.9297 -47.2002 74.1299 -47.2002h1.08984c17.1504 0 35.0098 0.69043 75.1104 47.2002c11.2295 13.0195 1.64941 32.7998 -15.8906 32.7998h-118.539zM208.59 117.81c69.3701 -27.7295 112.62 -5.67969 126.82 0
c-2.98047 32.54 -30.1201 58.1904 -63.4102 58.1904s-60.4297 -25.6504 -63.4102 -58.1904zM608 62.0801l-0.00976562 87.6895l-16 22.4609v59.6992c0 4.64062 -3.7998 8.01074 -8 8.01074c-3.77051 0 -18.2002 -7.39062 -22.6904 -24.6201l-78.6602 110.42
c-11.8594 16.3701 -31.2295 26.2598 -51.6895 26.2598h-51.25c7.71973 -18.1797 4.70996 -38.5996 -8.2998 -53.7002c-42.25 -49.0098 -67.5107 -58.2998 -100.44 -58.2998c-31.2002 0 -56.1201 9.29004 -98.3701 58.2998
c-13.0098 15.1006 -16.0098 35.5205 -8.2998 53.7002h-4.29004c-17.6396 0 -32 -14.3604 -32 -32v-288h48v80c0 31.4502 25.1396 96 96 96c70.5498 0 96 -65.1299 96 -96v-80h47.96l0.0400391 143.97l0.00976562 51.7402l95.9502 -47.9199v-61.7705
c0 -0.00488281 0.0195312 -0.0429688 0.0195312 -0.0478516c0 -6.37793 1.87402 -12.3223 5.10059 -17.3115l35.46 -54.9004c5.57031 -8.62012 15.0098 -13.7598 25.2695 -13.7598c16.7002 0 30.1904 13.4902 30.1904 30.0801zM568 144c8.83984 0 16 -7.16016 16 -16
s-7.16016 -16 -16 -16s-16 7.16016 -16 16s7.16016 16 16 16z" />
    <glyph glyph-name="dagger" unicode="&#xf6cb;" horiz-adv-x="384" 
d="M335.21 320.04c26.3203 0 48.3398 -20.8604 48.7803 -47.1699c0.450195 -26.8799 -21.21 -48.8105 -47.9902 -48.8105c-26.5098 0 -48 21.4902 -48 47.9902c0 5.64062 1.15039 10.9697 2.94043 16h-34.9404v-268.92l-50.6797 -76c-6.33984 -9.5 -20.3008 -9.5 -26.6299 0
l-50.6904 76.0098v268.92h-34.9404c1.79004 -5.0293 2.94043 -10.3594 2.94043 -16c0 -26.5098 -21.4902 -47.9893 -48 -47.9893c-26.7803 0 -48.4404 21.9297 -47.9902 48.79c0.44043 26.3193 22.46 47.1699 48.7803 47.1699h95.21v111.97c0 8.83984 7.16016 16 16 16h64
c8.83984 0 16 -7.16992 16 -16v-111.96h95.21zM64 272.05c0 8.82031 -7.17969 16 -16 16s-16 -7.17969 -16 -16c0 -8.81934 7.17969 -16 16 -16s16 7.18066 16 16zM176 416.01v-95.9697h32v95.9697h-32zM224 28.8203v259.229h-64v-259.229l32 -47.9902zM336 256.06
c8.82031 0 16 7.18066 16 16c0 8.82031 -7.17969 16 -16 16s-16 -7.17969 -16 -16c0 -8.81934 7.17969 -16 16 -16z" />
    <glyph glyph-name="dice-d10" unicode="&#xf6cd;" 
d="M503.88 186.71c11.7998 -13.2002 10.6006 -33.5 -2.68945 -45.21l-224.08 -197.53c-6.03027 -5.30957 -13.5703 -7.96973 -21.1104 -7.96973s-15.0801 2.65039 -21.1104 7.96973l-224.08 197.521c-13.29 11.7197 -14.5 32.0098 -2.68945 45.2197l224.08 250.65
c6.34961 7.08984 15.0801 10.6396 23.7998 10.6396s17.4502 -3.5498 23.7998 -10.6396zM256 150.05l75.8604 50.5703l-75.8604 177l-75.8604 -177zM148.72 208.29l72.25 168.59l-173.279 -193.85zM363.28 208.29l101.22 -25.2998l-173.47 193.89zM31.9102 165.38
l-0.0205078 -0.0195312zM48.9404 150.35l191.1 -168.319v140.22l-82.7598 55.1904zM271.96 -17.9004l190.96 168.28l-108.2 27.0605l-82.7598 -55.1904v-140.15z" />
    <glyph glyph-name="dice-d12" unicode="&#xf6ce;" 
d="M505.24 269.51c4.4502 -8.87988 6.75977 -18.6797 6.75977 -28.6201v-97.7793c-0.00390625 -10.2598 -2.46191 -20.0205 -6.75977 -28.6201l-47.7002 -95.4102c-6.2002 -12.4053 -16.2148 -22.4199 -28.6201 -28.6201l-95.4102 -47.7002
c-8.88965 -4.4502 -18.6797 -6.75977 -28.6201 -6.75977h-97.7793c-10.2598 0.00390625 -20.0205 2.46191 -28.6201 6.75977l-95.4102 47.7002c-12.4053 6.2002 -22.4199 16.2148 -28.6201 28.6201l-47.7002 95.4102c-4.4502 8.88965 -6.75977 18.6797 -6.75977 28.6201
v97.7793c0 0.0078125 0.0371094 0.0761719 0.0371094 0.0839844c0 10.2539 2.42188 19.9463 6.72266 28.5361l47.7002 95.4102c6.2002 12.4053 16.2148 22.4199 28.6201 28.6201l95.4102 47.7002c8.88965 4.4502 18.6797 6.75977 28.6201 6.75977h97.7793
c0.00488281 0 0.0722656 -0.0371094 0.0761719 -0.0371094c10.2568 0 19.9512 -2.42188 28.5439 -6.72266l95.4102 -47.7002c12.4053 -6.2002 22.4199 -16.2148 28.6201 -28.6201zM475.69 257.07l-46.75 93.5098l-156.94 -42.7998v-105.891l108.11 -54.0498zM308.8 -32
l55.29 152.06l-108.09 54.0508l-108.09 -54.0508l55.29 -152.06h105.6zM199.55 416l-82.8398 -41.4199l139.29 -37.9902l139.29 37.9902l-82.8496 41.4199h-112.891zM83.0596 350.58l-46.75 -93.5098l95.5801 -109.221l108.11 54.0508v105.88zM32 135.55l55.8496 -111.7
l74.5605 -37.2793l-48.4199 133.16l-81.9902 93.6992v-77.8799zM424.15 23.8496l55.8496 111.7v77.8799l-81.9902 -93.6992l-48.4199 -133.16z" />
    <glyph glyph-name="dice-d20" unicode="&#xf6cf;" horiz-adv-x="448" 
d="M431.88 331.87c9.96973 -5.81055 16.1201 -16.6201 16.1201 -28.3301v-223.09c0 -11.7002 -6.15039 -22.5098 -16.1201 -28.3203l-192 -111.83c-4.65527 -2.71973 -10.1377 -4.2793 -15.9141 -4.2793c-5.77539 0 -11.1904 1.55957 -15.8457 4.2793l-192 111.83
c-9.96973 5.81055 -16.1201 16.6104 -16.1201 28.3203v223.09c0 11.71 6.15039 22.5195 16.1201 28.3203l192 111.84c4.65527 2.71973 10.1377 4.2793 15.9141 4.2793c5.77539 0 11.1904 -1.55957 15.8457 -4.2793zM224 390.38l-94.7002 -118.38h189.4zM124.62 240
l99.3799 -161.47l99.3701 161.47h-198.75zM192.9 68.0098l-92.5508 150.4l-44.4297 -133.28zM347.65 218.42l-92.5508 -150.41l136.98 17.1299zM354.82 278.11l45.8594 34.3896l-138.01 80.7803zM93.1797 278.11l92.3008 115.38l-138.54 -80.7002zM77.1699 250.13
l-44.96 33.7197l-0.169922 -169.119zM208 33.8799l-122.6 15.3203l122.6 -71.75v56.4297zM363.6 49.3301l-123.6 -15.4502v-56.7197zM370.83 250.13l44.9795 -134.93l0.170898 168.79zM224.14 -32h0.169922l-0.0898438 -0.0498047z" />
    <glyph glyph-name="dice-d4" unicode="&#xf6d0;" 
d="M504.9 158.97c11.3096 -13.9893 8.83984 -34.5693 -5.4707 -45.4893l-224.05 -170.94c-5.71973 -4.37012 -12.5498 -6.5498 -19.3799 -6.5498s-13.6602 2.17969 -19.3799 6.5498l-224.05 170.94c-14.3105 10.9199 -16.7803 31.4893 -5.4707 45.4893l224.051 277.17
c6.39941 7.90039 15.6191 11.8604 24.8496 11.8604s18.4502 -3.95996 24.8398 -11.8604zM31.9902 138.86l208.01 -158.65v416.04zM256.02 -32l0.0205078 -0.00976562zM272 -19.8203l208.02 158.74l-208.02 257.26v-416z" />
    <glyph glyph-name="dice-d6" unicode="&#xf6d1;" horiz-adv-x="448" 
d="M431.88 331.87c9.96973 -5.81055 16.1201 -16.6201 16.1201 -28.3301v-223.09c0 -11.7002 -6.15039 -22.5098 -16.1201 -28.3203l-192 -111.83c-4.65527 -2.71973 -10.1377 -4.2793 -15.9141 -4.2793c-5.77539 0 -11.1904 1.55957 -15.8457 4.2793l-192 111.83
c-9.96973 5.81055 -16.1201 16.6104 -16.1201 28.3203v223.09c0 11.71 6.15039 22.5195 16.1201 28.3203l192 111.84c4.65527 2.71973 10.1377 4.2793 15.9141 4.2793c5.77539 0 11.1904 -1.55957 15.8457 -4.2793zM224 415.92l-176.17 -102.62l176.17 -102.78
l175.75 102.54zM32.21 285.35l-0.209961 -204.89l176 -103.01v205.37zM240 -22.8398l175.77 102.63l0.210938 205.67l-175.98 -102.64v-205.66z" />
    <glyph glyph-name="dice-d8" unicode="&#xf6d2;" 
d="M502.1 215.9c13.2002 -13.2002 13.2002 -34.6006 0 -47.7002l-222.199 -222.2c-6.60059 -6.59961 -15.2002 -9.90039 -23.9004 -9.90039s-17.2998 3.30078 -23.9004 9.90039l-222.199 222.2c-13.2002 13.2002 -13.2002 34.5 0 47.7002l222.199 222.199
c6.60059 6.60059 15.3008 9.90039 23.9004 9.90039s17.2998 -3.2998 23.9004 -9.90039zM240 -16.7002v102.2l-178.8 76.5996zM240 120.3v280.4l-196.3 -196.3zM272 -16.7002l178.8 178.8l-178.8 -76.5996v-102.2zM272 120.3l196.3 84.1006l-196.3 196.3v-280.4z" />
    <glyph glyph-name="dragon" unicode="&#xf6d5;" horiz-adv-x="640" 
d="M481.01 328.05c-12.0293 0.69043 -34.0293 12.8301 -27.54 39.9502l58.4199 -15.3701c-3.5293 -14.6895 -15.96 -25.4395 -30.8799 -24.5801zM535.51 196.25c37.8906 -21.5596 85.0703 -48.4102 99.5703 -100.56c10.5898 -38.0703 3.5 -76 -19.9004 -106.801
c-25.1494 -33.1201 -65.6396 -52.8896 -108.29 -52.8896l-474.01 0.0498047c-18.1201 0 -32.8701 14.6406 -32.8701 32.6406c0 15.21 10.8506 28.6094 25.8105 31.8799c111.739 24.5293 233.58 52.5801 364.13 61.3301c-13 13.3799 -22.8398 29.0195 -31.1699 45.7295
l-202.87 -27.3896c-6.28027 -0.810547 -17.4502 0.599609 -24.1504 11.0498c-5.0293 7.87012 -5.05957 17.6797 -0.0292969 25.5898l12.0693 17.2998l-115.02 -21.7998c-15.4502 -2.2002 -23.2998 8.29004 -24.9902 10.9102
c-5.03027 7.87012 -5.05957 17.6797 -0.0302734 25.5898l90.8906 130.22c11.3096 16.25 31.8096 23.9404 50.9893 19.0801l190.301 -47.8799v50.8906l-48.1104 19.25c-20.2705 9.8291 -17.3203 34.6992 -1.12988 42.6396l32.5498 13.4199l-37.4902 30.25
c-17.6895 17.21 -4.06934 41.25 15.4004 41.25h208.979c24.8408 0 48.6406 -11.8096 63.6602 -31.5898l56.9307 -74.8906c12.5 -16.4697 16.46 -38.1094 10.6191 -57.9092l-7.39941 -25.1602c-5.93066 -20.2803 -24.8701 -34.4502 -46.0205 -34.4502h-29.1797
c-10.5303 0 -20.9297 3.5498 -29.2695 9.96973l-28.6201 22.0303h-16.96v-8.37012c0 -19.7402 25.7695 -34.3994 55.6094 -51.3799zM41.7197 147.38l128.28 24.3203l51.96 74.4297l-84.0703 21.0205c-6.40918 1.5 -13.25 -0.970703 -17 -6.36035zM168.9 114.28
l177.619 23.9795c-1.91992 6.37012 -10.5996 31.1006 -10.5996 79l-80.79 20.5zM506.89 -32c56.2402 0 116.74 49.2402 97.3799 119.1c-10.9893 39.4404 -48.3896 60.7402 -84.5693 81.3301c-36.9307 21 -71.7998 40.8506 -71.7998 79.1904v24.3799
c0 8.83984 7.15918 16 16 16h38.3994c3.66113 0 7.05176 -1.23828 9.75 -3.30957l32.96 -25.3604c2.85059 -2.19043 6.19043 -3.33008 9.75 -3.33008h29.1807c7.0293 0 13.3398 4.71973 15.3398 11.4697l7.39941 25.1904c2.95996 10.0898 0.94043 21.0996 -5.43945 29.4795
l-56.9199 74.9102c-9 11.8701 -23.2803 18.9502 -38.1807 18.9502h-184.989l39.2197 -31.5498c4.39941 -3.5498 6.62012 -9.16016 5.80957 -14.75c-0.80957 -5.58984 -4.5293 -10.3398 -9.75 -12.5l-36.71 -15.0898l38.1504 -15.2305
c6.08984 -2.43945 10.0596 -8.30957 10.0596 -14.8604v-101.829c0 -67.9102 23.8008 -116.601 72.7607 -148.83c13 -8.51074 7.31934 -28.8105 -8.2207 -29.3408c-47.8496 -1.65918 -169.939 -7.25 -400.47 -64.0195h474.89z" />
    <glyph glyph-name="duck" unicode="&#xf6d8;" horiz-adv-x="576" 
d="M432 192h-15.9902v-22.96c18.8398 -20.4502 30.9199 -47.2402 31.9307 -76.9805c2.31934 -68.1992 -58.29 -124.06 -126.53 -124.06h-99.9404c-111.34 0 -203.71 81.2305 -221.069 187.66c-3.12012 19.1299 12.4697 36.3398 31.8496 36.3398h48.1602
c-0.0400391 1.37988 -0.410156 2.66016 -0.410156 4.0498c0 11.3506 6.76953 21.4805 17.2598 25.8398c3.4707 1.41992 7.10059 2.12012 10.71 2.12012c6.2207 0 12.3506 -2.06934 17.3506 -6.01953c20.1602 -15.9199 44.2695 -25.9902 69.9492 -25.9902h60.7305v112
c0 61.8604 50.1396 112 112 112c8.83008 0 17.9004 -1.01953 27.0801 -3.17969c40.4502 -9.48047 73.04 -42.6602 82.0596 -83.21c0.730469 -3.25 0.850586 -6.40039 1.29004 -9.61035h97.5703c0 -70.6904 -73.3096 -128 -144 -128zM478.73 288
c-3.54004 -24.4297 -14.9805 -46.1904 -31.6807 -62.7998c35.0703 5.5498 79.8799 30.1201 91.4697 62.7998h-59.7891zM392.46 147.36l-8.45996 9.17969v66.8301c1.63965 0.790039 0.429688 0.209961 13.25 6.33008c29.6797 11.7002 50.75 40.4697 50.75 74.2998
c0 44.1797 -35.8203 80 -80 80s-80 -35.8203 -80 -80v-144h-92.7402c-33.79 0 -61.6201 8.94043 -82.8799 26.5898c4.82031 -59.5898 54.8604 -106.59 115.66 -106.59h19.96c4.41992 0 8 -3.58008 8 -8v-16c0 -4.41992 -3.58008 -8 -8 -8h-19.9502
c-69.1396 0 -126.88 47.8301 -143.09 112h-52.8203c15.2803 -90.6904 94.3604 -160 189.33 -160h99.9404c26.0703 0 51.5996 10.9404 70.04 30.0195c16.5498 17.1309 25.25 38.7803 24.5 60.9609c-0.709961 20.6797 -9.0498 40.6992 -23.4902 56.3799zM368 320
c8.83984 0 16 -7.16016 16 -16s-7.16016 -16 -16 -16s-16 7.16016 -16 16s7.16016 16 16 16z" />
    <glyph glyph-name="dungeon" unicode="&#xf6d9;" 
d="M240 270.38c5.23047 0.889648 10.5195 1.62012 16 1.62012s10.7695 -0.730469 16 -1.62012v-294.38c0 -4.41992 -3.58008 -8 -8 -8h-16c-4.41992 0 -8 3.58008 -8 8v294.38zM176 228.87c8.16016 12.2998 19.2197 22.3203 32 29.7695v-282.64
c0 -4.41992 -3.58008 -8 -8 -8h-16c-4.41992 0 -8 3.58008 -8 8v252.87zM512 152l0.0195312 -63.9805c0 -9 -2.98926 -17.3096 -8.01953 -24c5.03027 -6.68945 8.01953 -15 8.01953 -24v-64c0 -22.0498 -17.9395 -40 -40 -40h-64c-22.0596 0 -40 17.9502 -40 40v64
c0 9 2.99023 17.3105 8.02051 24c-5.03027 6.69043 -8.02051 15 -8.02051 24v64c0 0.0175781 0.0195312 0.0673828 0.0195312 0.0839844c0 8.89258 2.92383 17.1084 7.86133 23.7363c-4.65039 6.15039 -7.58008 13.7002 -8.04004 21.96
c-0.709961 12.5303 -3.74023 25.1104 -9.02051 37.3906c-2.66016 6.18945 -3.67969 12.6797 -3.2002 18.9697c-6 2.30957 -11.4395 6.08008 -15.79 11.0498c-7.2998 8.33984 -15.7793 15.54 -25.2197 21.4102c-5.7002 3.54004 -10.2402 8.30957 -13.4395 13.7695
c-3.15039 -0.779297 -6.4209 -1.17969 -9.78027 -1.17969c-3.37012 0 -6.74023 0.419922 -10.0205 1.25977c-9.41992 2.41016 -17.4893 3.53027 -25.4092 3.53027c-7.91016 0 -15.9707 -1.12012 -25.3906 -3.53027c-3.26953 -0.839844 -6.63965 -1.25977 -10.0098 -1.25977
c-3.34961 0 -6.62988 0.410156 -9.77051 1.17969c-3.19922 -5.46973 -7.73926 -10.2393 -13.4395 -13.7793c-9.42969 -5.87012 -17.9102 -13.0703 -25.21 -21.4102c-4.33984 -4.96973 -9.78027 -8.73047 -15.7803 -11.0498
c0.469727 -6.29004 -0.540039 -12.7803 -3.2002 -18.9707c-5.2793 -12.2793 -8.30957 -24.8594 -9.01953 -37.3994c-0.446289 -8.19629 -3.38379 -15.8037 -8.04004 -21.96c4.9502 -6.66016 7.87988 -14.9004 7.87988 -23.8203v-64c0 -9 -2.99023 -17.3096 -8.01953 -24
c5.0293 -6.69043 8.01953 -15 8.01953 -24v-64c0 -22.0498 -17.9404 -40 -40 -40h-64c-22.0596 0 -40 17.9502 -40 40v64c0 9 2.99023 17.3096 8.01953 24c-5.0293 6.69043 -8.01953 15 -8.01953 24v64c0 0.0185547 0.0175781 0.0683594 0.0175781 0.0869141
c0 9.05859 3.03516 17.4131 8.14258 24.1035c-5.45996 7.30957 -8.33008 16.3594 -7.98047 25.4795c1.33008 35.21 9.77051 69.1797 25.0898 100.99c4.49023 9.32031 12.4707 16.3994 21.9404 19.9902c-0.860352 10.1396 2.16016 20.2695 8.5 28.25
c21.3398 26.8594 47.3701 48.8398 77.3701 65.3398c5.86035 3.21973 12.5 4.91992 19.1895 4.91992c3.4502 0 6.83008 -0.450195 10.0908 -1.31055c5.16992 8.82031 13.5596 15.3809 23.3896 18.2002c22.96 6.60059 46.5996 9.9502 70.25 9.9502
s47.29 -3.34961 70.2402 -9.9502c9.84961 -2.81934 18.2295 -9.37988 23.3994 -18.2002c3.26074 0.860352 6.64062 1.31055 10.0908 1.31055c6.93555 -0.00878906 13.5029 -1.81152 19.1895 -4.92969c29.9902 -16.5 56.0205 -38.4805 77.3604 -65.3301
c6.34961 -7.98047 9.37012 -18.1201 8.50977 -28.2607c9.45996 -3.58008 17.4502 -10.6699 21.9404 -19.9893c15.3291 -31.8008 23.7695 -65.7803 25.0898 -100.971c0.349609 -9.12988 -2.52051 -18.1797 -7.98047 -25.4893
c5.12012 -6.7207 8.16016 -15.1104 8.16016 -24.1904zM112 -24v64c0 4.41992 -3.58008 8 -8 8h-64c-4.41992 0 -8 -3.58008 -8 -8v-64c0 -4.41992 3.58008 -8 8 -8h64c4.41992 0 8 3.58008 8 8zM112 88v64c0 4.41992 -3.58008 8 -8 8h-64c-4.41992 0 -8 -3.58008 -8 -8v-64
c0 -4.41992 3.58008 -8 8 -8h64c4.41992 0 8 3.58008 8 8zM123.78 247.82c1.5498 3.59961 0.370117 7.71973 -2.9502 9.7998l-55.04 34.3994c-1.36035 0.850586 -2.87012 1.25 -4.37012 1.25c-3 0 -5.92969 -1.60938 -7.32031 -4.48926
c-12.9697 -26.9199 -20.75 -56.7705 -21.9395 -88.2998c-0.169922 -4.57031 3.67969 -8.4707 8.25 -8.4707h64.0596c4.23047 0 7.5 3.36035 7.74023 7.58008c0.959961 17.0703 5.12988 33.2402 11.5703 48.2305zM180.48 313.79
c3.26953 2.03027 4.70996 5.97949 3.30957 9.58008l-23.79 60.5703c-1.26953 3.25 -4.4502 5.23926 -7.71973 5.23926c-1.28027 0 -2.57031 -0.299805 -3.77051 -0.959961c-26.3379 -14.5029 -49.1455 -33.8184 -67.7295 -57.21
c-2.99023 -3.75977 -1.90039 -9.42969 2.16992 -11.9697l55 -34.3799c1.28027 -0.799805 2.68945 -1.17969 4.08008 -1.17969c2.23926 0 4.45996 0.979492 6.0498 2.7998c9.40332 10.7578 20.2041 19.9404 32.4004 27.5098zM298.86 336.12l23.7295 60.4102
c1.73047 4.38965 -0.639648 9.46973 -5.16992 10.7695c-19.5303 5.61035 -40.1104 8.7002 -61.4199 8.7002s-41.8896 -3.08984 -61.4004 -8.69043c-4.5293 -1.2998 -6.88965 -6.37988 -5.16992 -10.7695l23.7305 -60.4102
c1.20996 -3.08984 4.22949 -4.91992 7.43945 -4.91992c0.69043 0 1.39062 0.0800781 2.09082 0.259766c11.7598 3 22.5098 4.52051 33.2998 4.52051c10.7295 0 21.5 -1.5 33.3301 -4.52051c0.689453 -0.179688 1.38965 -0.259766 2.08984 -0.259766
c3.20996 0 6.24023 1.83008 7.4502 4.91016zM374.05 284.65l55 34.3691c4.07031 2.54004 5.16016 8.21094 2.16992 11.9707c-18.584 23.3916 -41.3916 42.7061 -67.7295 57.21c-1.2002 0.649414 -2.49023 0.959961 -3.77051 0.959961
c-3.25977 0 -6.4502 -2 -7.71973 -5.24023l-23.79 -60.5703c-1.40039 -3.58008 0.0400391 -7.5293 3.30957 -9.56934c12.1924 -7.57422 22.9922 -16.7568 32.4004 -27.5107c1.58984 -1.81934 3.7998 -2.7998 6.0498 -2.7998c1.40039 0 2.7998 0.379883 4.08008 1.18066z
M388.22 247.82c6.44043 -15 10.6104 -31.1602 11.5801 -48.2305c0.240234 -4.21973 3.50977 -7.58008 7.74023 -7.58008h64.0596c4.57031 0 8.41992 3.90039 8.25 8.4707c-1.18945 31.5293 -8.96973 61.3896 -21.9395 88.2998
c-1.37988 2.87988 -4.32031 4.48926 -7.32031 4.48926c-0.0078125 0.000976562 -0.0244141 -0.00488281 -0.0322266 -0.00488281c-1.59277 0 -3.08008 -0.456055 -4.33789 -1.24512l-55.04 -34.3994c-3.33008 -2.08008 -4.50977 -6.19043 -2.95996 -9.7998zM480 -24v64
c0 4.41992 -3.58008 8 -8 8h-64c-4.41992 0 -8 -3.58008 -8 -8v-64c0 -4.41992 3.58008 -8 8 -8h64c4.41992 0 8 3.58008 8 8zM480 88v64c0 4.41992 -3.58008 8 -8 8h-64c-4.41992 0 -8 -3.58008 -8 -8v-64c0 -4.41992 3.58008 -8 8 -8h64c4.41992 0 8 3.58008 8 8z
M304 258.64c12.7803 -7.44922 23.8398 -17.4697 32 -29.7695v-252.87c0 -4.41992 -3.58008 -8 -8 -8h-16c-4.41992 0 -8 3.58008 -8 8v282.64z" />
    <glyph glyph-name="eye-evil" unicode="&#xf6db;" horiz-adv-x="640" 
d="M627.03 208.92c17.29 -4.68945 17.29 -29.1504 0.00976562 -33.8398l-112.16 -30.3799c-4.72949 -6.48047 -9.97949 -13.2197 -15.8604 -20.1807c1.37012 -2.12988 55.2002 -88.1699 55.2002 -88.1699c8.90039 -14.2695 -6.0293 -31.3799 -22.4502 -25.4297
l-119.649 43.3203c-9.74023 -4.86035 -20.04 -9.00977 -30.8506 -12.4404l-44.3896 -95.0693c-3.33984 -7.15039 -10.1104 -10.7305 -16.8799 -10.7305s-13.54 3.58008 -16.8701 10.7305l-44.3896 95.0693c-10.8105 3.43066 -21.1201 7.58008 -30.8506 12.4404
l-119.649 -43.3203c-16.3799 -5.91992 -31.3799 11.1201 -22.4502 25.4297c0 0 53.8301 86.04 55.2002 88.1699c-5.87988 6.96094 -11.1406 13.7002 -15.8604 20.1807l-112.16 30.3799c-17.29 4.68945 -17.29 29.1602 0 33.8398l112.15 30.3799
c4.74023 6.5 10.0195 13.2705 15.9199 20.25c-1.37012 2.10059 -55.2598 88.1006 -55.2598 88.1006c-7.69043 12.3096 2.34961 26.6299 15.7197 26.6299c4.84961 0 -3.46973 2.48926 126.39 -44.5205c9.73047 4.86035 20.0303 9.00977 30.8408 12.4404l44.3896 95.0693
c3.33984 7.15039 10.1104 10.7305 16.8799 10.7305s13.54 -3.58008 16.8799 -10.7402l44.3896 -95.0693c10.8105 -3.43066 21.1104 -7.58008 30.8408 -12.4404l119.649 43.3203c16.4102 5.94922 31.3506 -11.1602 22.4502 -25.4199c0 0 -53.8896 -85.9902 -55.2598 -88.1006
c5.89941 -6.97949 11.1797 -13.75 15.9199 -20.25zM495.64 172.65l71.4502 19.3496l-71.46 19.3398c-15.0195 20.6006 -12.6494 17.5098 -36.4902 45.7197l45.9502 72.3203l-95 -34.3994c-24.7998 12.3896 -24.0596 12.1191 -51.8799 20.96l-38.21 81.8398
l-38.2197 -81.8301c-27.8799 -8.86035 -27.1904 -8.62988 -51.8799 -20.96l-95 34.3994l45.9492 -72.3193c-23.9395 -28.3301 -21.5596 -25.2402 -36.4893 -45.7207l-71.4502 -19.3496l71.4502 -19.3496c14.9795 -20.5605 12.6201 -17.4805 36.3193 -45.5205
l-45.7793 -72.5098l95 34.3896c24.8096 -12.3896 24.1299 -12.1396 51.8896 -20.9502l38.21 -81.8398l38.21 81.8398c27.7803 8.82031 27.1201 8.57031 51.8896 20.9502l95 -34.3896l-45.7793 72.5098c23.6699 28.0098 21.3398 24.9697 36.3193 45.5205zM320 234.67
c32.8203 0 62.7002 8.79004 86.4502 23.0801c11.0693 -16.5195 17.5498 -36.3701 17.5498 -57.75c0 -57.4404 -46.5596 -104 -104 -104s-104 46.5596 -104 104c0 21.3799 6.48047 41.2305 17.5498 57.7598c23.75 -14.2998 53.6299 -23.0898 86.4502 -23.0898zM320 128
c39.7002 0 72 32.2998 72 72c0 5.03027 -0.519531 10 -1.54004 14.8496c-12.4199 -4.5293 -25.5195 -7.48926 -38.9102 -9.5c0.0703125 -0.939453 0.450195 -1.71973 0.450195 -2.68945c0 -28.4502 -32 -42.6699 -32 -42.6699s-32 14.2197 -32 42.6699
c0 0.979492 0.370117 1.75 0.450195 2.68945c-13.3906 2.02051 -26.4902 4.9707 -38.9102 9.5c-1.02051 -4.84961 -1.54004 -9.81934 -1.54004 -14.8496c0 -39.7002 32.2998 -72 72 -72z" />
    <glyph glyph-name="fist-raised" unicode="&#xf6de;" horiz-adv-x="384" 
d="M350.82 280.06c20.1699 -17.5996 33.1797 -43.1895 33.1797 -72.0596v-88.2305c0 -33.9492 -13.4902 -66.5098 -37.4902 -90.5098l-26.5098 -26.5098v-58.75c0 -4.41992 -3.58008 -8 -8 -8h-16c-4.41992 0 -8 3.58008 -8 8v72l35.9404 35.9404
c17.9697 17.9697 28.0596 42.3291 28.0596 67.7393v88.3203c0 35.3496 -28.6504 64 -64 64h-80.1396c-8.78027 0 -15.9004 -7.12012 -15.9004 -15.9004v-0.739258c0 -26.1504 21.2002 -47.3604 47.3604 -47.3604h40.6699c4.41992 0 8 -3.58008 8 -8v-16.2598
c0 -4.25977 -3.57031 -7.70996 -7.82031 -7.93066c-44.5596 -2.26953 -64.21 -24.6895 -96.1201 -72.5596l-6.30957 -9.46973c-1.43262 -2.15332 -3.88477 -3.55957 -6.66211 -3.55957c-1.63672 0 -3.16016 0.493164 -4.42773 1.33887l-13.3105 8.88086
c-2.15234 1.43164 -3.55957 3.88379 -3.55957 6.66113c0 1.6377 0.493164 3.16016 1.33984 4.42871c23.3496 35.0293 37.5996 54.9795 57.2695 70.7695c-21.2793 9.02051 -30.3799 23.3506 -30.6201 23.6504c-8.67969 -8.61035 -20.6094 -13.9502 -33.7695 -13.9502h-16
c-12.3398 0 -23.4902 4.7998 -32 12.4805c-8.50977 -7.6709 -19.6602 -12.4805 -32 -12.4805h-16c-5.63965 0 -10.9697 1.16016 -16 2.9502v-45.9307c0 -30.8906 12.5215 -58.8926 32.7803 -79.1592l31.2197 -31.2305v-94.6299c0 -4.41992 -3.58008 -8 -8 -8h-16
c-4.41992 0 -8 3.58008 -8 8v81.3799l-21.8496 21.8701c-26.9902 26.9902 -42.1504 63.5996 -42.1504 101.77v186.98c0 26.5098 21.4902 48 48 48h16c6.32031 0 12.3203 -1.29004 17.8496 -3.51953c5.53027 20.3994 24.0303 35.5195 46.1504 35.5195h16
c6.32031 0 12.3203 -1.29004 17.8496 -3.51953c5.53027 20.3994 24.0303 35.5195 46.1504 35.5195h16c22.1201 0 40.6201 -15.1201 46.1504 -35.5195c5.5293 2.22949 11.5293 3.51953 17.8496 3.51953h16c26.5098 0 48 -21.4902 48 -48v-80
c0 -2.75977 -0.719727 -5.30957 -1.17969 -7.94043zM80 240v96c0 8.83984 -7.16016 16 -16 16h-16c-8.83984 0 -16 -7.16016 -16 -16v-96c0 -8.83984 7.16016 -16 16 -16h16c8.83984 0 16 7.16016 16 16zM160 240v128c0 8.83984 -7.16016 16 -16 16h-16
c-8.83984 0 -16 -7.16016 -16 -16v-128c0 -8.83984 7.16016 -16 16 -16h16c8.83984 0 16 7.16016 16 16zM240 304v96c0 8.83984 -7.16016 16 -16 16h-16c-8.83984 0 -16 -7.16016 -16 -16v-98.8496c5.0498 1.75 10.3896 2.84961 15.9697 2.84961h32.0303zM320 298.12
v69.8799c0 8.83984 -7.16016 16 -16 16h-16c-8.83984 0 -16 -7.16016 -16 -16v-64h16c11.2803 0 21.9502 -2.30957 32 -5.87988z" />
    <glyph glyph-name="ghost" unicode="&#xf6e2;" horiz-adv-x="384" 
d="M192 448c106.04 0 192 -85.96 192 -192v-271.97c0 -9.64062 -7.90039 -16.0303 -16.1201 -16.0303c-3.92969 0 -7.93945 1.45996 -11.2002 4.71973l-24.9199 18.5303c-2.66211 1.98047 -5.97168 3.16797 -9.54199 3.16797c-4.75977 0 -9.03711 -2.08398 -11.9678 -5.3877
l-42.9502 -48.3506c-3.12012 -3.12988 -7.21973 -4.68945 -11.3096 -4.68945s-8.19043 1.56934 -11.3105 4.68945l-40.7197 45.8506c-3.17969 3.58984 -7.57031 5.37988 -11.96 5.37988s-8.78027 -1.7998 -11.96 -5.37988l-40.7197 -45.8506
c-3.12012 -3.12988 -7.2207 -4.68945 -11.3105 -4.68945s-8.18945 1.56934 -11.3096 4.68945l-42.9502 48.3506c-3.15039 3.5498 -7.54004 5.37988 -11.9697 5.37988c-3.33008 0 -6.68066 -1.04004 -9.54004 -3.16016l-24.9199 -18.5303
c-3.26074 -3.25977 -7.27051 -4.71973 -11.2002 -4.71973c-8.23047 0 -16.1201 6.38965 -16.1201 16.0303v263.92c0 105.13 81.0098 196.81 186.09 199.96c1.98047 0.0595703 3.9502 0.0898438 5.91016 0.0898438zM352 16.0801v239.92c0 88.2197 -71.7803 160 -160 160
l-4.9502 -0.0800781c-85.4902 -2.55957 -155.05 -77.9199 -155.05 -167.97v-231.87l1.13965 0.839844c8.34082 6.2002 18.2402 9.48047 28.6299 9.48047c14.2734 -0.000976562 27.0928 -6.2207 35.8906 -16.1201l30.3398 -34.1504l28.1104 31.6504
c9.09961 10.2393 22.1797 16.1201 35.8896 16.1201s26.79 -5.87012 35.8896 -16.1201l28.1104 -31.6504l30.3398 34.1504c9.10059 10.2393 22.1797 16.1201 35.8906 16.1201c10.3994 0 20.2998 -3.27051 28.6396 -9.48047zM128 288c17.6699 0 32 -14.3301 32 -32
s-14.3301 -32 -32 -32s-32 14.3301 -32 32s14.3301 32 32 32zM256 288c17.6699 0 32 -14.3301 32 -32s-14.3301 -32 -32 -32s-32 14.3301 -32 32s14.3301 32 32 32z" />
    <glyph glyph-name="hammer" unicode="&#xf6e3;" horiz-adv-x="576" 
d="M573.65 247.08c1.4502 -1.44824 2.34863 -3.45117 2.34863 -5.66113s-0.898438 -4.21094 -2.34863 -5.65918l-124.74 -124.45c-3.12988 -3.11914 -8.20996 -3.11914 -11.3398 0l-11.3398 11.3105c-1.45117 1.44629 -2.34961 3.44824 -2.34961 5.65625
s0.898438 4.20801 2.34961 5.65332l17.0098 16.9707l-52.9805 52.8594c-13.2793 -3.5 -27.2793 -2.25977 -40.1201 2.7998l-233.13 -249.14c-13.3301 -14.25 -31.3701 -21.4199 -49.4199 -21.4199c-17.2695 0 -34.5703 6.55957 -47.79 19.75
c-27.04 26.9805 -26.2803 70.9502 1.66992 96.9902l247.03 230.1c-9.28027 15.1006 -11.8203 33.0898 -7.40039 49.7998l-68.6592 68.5c31.3096 31.2402 72.3594 46.8604 113.399 46.8604s82.0801 -15.6201 113.391 -46.8604l45.3594 -45.25
c16.75 -16.71 22.0303 -40.2998 16.3906 -61.6094l52.9795 -52.8604l17.0098 16.9697c3.12988 3.12012 8.20996 3.12012 11.3398 0zM93.5703 -20.7402l230.01 245.79l-33.8496 33.7705l-246.37 -229.471c-7.11035 -6.61914 -11.1104 -15.5996 -11.2803 -25.2998
s3.53027 -18.8096 10.4004 -25.6699c6.70996 -6.68945 15.6299 -10.3799 25.1094 -10.3799c9.95996 0 19.1904 4 25.9805 11.2598zM465.92 173.54l45.3701 45.25l-52.9805 52.8604l-13.04 13.0098l4.71094 17.79c2.97949 11.2695 -0.0302734 22.79 -8.06055 30.7998
l-45.3604 45.2598c-24.2393 24.1699 -56.4492 37.4902 -90.7197 37.4902c-23.2998 0 -45.6602 -6.16016 -65.2002 -17.7002l43.1406 -43.0498l13.04 -13.0098l-4.70996 -17.79c-2.98047 -11.2705 0.0292969 -22.79 8.05957 -30.7998l51.0303 -50.9102
c8.03027 -8.00977 19.5693 -11.0205 30.8701 -8.04004l17.8301 4.7002l13.04 -13.0107z" />
    <glyph glyph-name="hand-holding-magic" unicode="&#xf6e5;" horiz-adv-x="576" 
d="M558.3 114.35c11.71 -10.5693 18.1504 -25.6191 17.6699 -41.29c-0.479492 -15.6699 -7.76953 -30.2695 -20 -40.0293l-100.83 -80.6699c-13.2295 -10.5908 -29.6797 -16.3604 -46.6299 -16.3604h-400.51c-4.41992 0 -8 3.58008 -8 8v16c0 4.41992 3.58008 8 8 8h400.49
c10.0654 0 19.3516 3.50977 26.6494 9.34961l100.83 80.6602c10.1299 8.08008 10.9199 23.5098 0.870117 32.5898c-3.87012 3.5 -8.79004 5.16016 -13.7803 5.16016c-5.16992 0 -10.4092 -1.7793 -14.6299 -5.16016l-61.5596 -49.25
c-7.56055 -6.0498 -16.96 -9.34961 -26.6504 -9.34961h-180.22c-8.83984 0 -16 7.16016 -16 16s7.16016 16 16 16h88c13.25 0 24 10.75 24 24c0 13.2598 -10.75 24 -24 24h-146.67c-14.3779 0 -27.7109 -4.78223 -38.4004 -12.7998l-46.9297 -35.2002h-88
c-4.41992 0 -8 3.58008 -8 8v16c0 4.41992 3.58008 8 8 8h77.3301l38.4004 28.7998c16.6191 12.46 36.8291 19.2002 57.5996 19.2002h144.24c28.21 0 53.8096 -19.7998 57.8301 -47.7305c1.66992 -11.6094 -0.25 -22.6895 -4.81055 -32.2695h41.6299
c2.51562 0.00292969 4.83594 0.880859 6.66016 2.33984l61.5703 49.25c9.80957 7.85059 22.1094 12.1699 34.6201 12.1699c13.1396 0 25.6494 -4.75977 35.2295 -13.4102zM208 224c-42.6201 0 -80 37.3896 -80 80v64c0 44.1104 35.8701 80 80 80h160
c44.1201 0 80 -35.8896 80 -80v-70.6699c-0.44043 -57.0605 -42.5996 -106.55 -99.6904 -121.33l20.8506 20.5703c30.21 29.79 46.8398 66.0801 46.8398 102.199v69.2305c0 26.4697 -21.5303 48 -48 48h-160c-26.4697 0 -48 -21.5303 -48 -48v-64
c0 -22.6602 20.5303 -48 48 -48h72c22.0596 0 40 17.9404 40 40s-17.9404 40 -40 40h-15.3096c-30.8105 0 -54.9707 -6.75 -72.6904 -14.6104c12.8096 27.8301 41 46.6104 72.6904 46.6104h15.3096c39.6904 0 72 -32.2998 72 -72s-32.3096 -72 -72 -72h-72z" />
    <glyph glyph-name="hanukiah" unicode="&#xf6e6;" horiz-adv-x="624" 
d="M232 320c-13.25 0 -24 11.9502 -24 26.6699s24 53.3301 24 53.3301s24 -38.5996 24 -53.3301c0 -14.7295 -10.75 -26.6699 -24 -26.6699zM392 320c-13.25 0 -24 11.9502 -24 26.6699s24 53.3301 24 53.3301s24 -38.5996 24 -53.3301
c0 -14.7295 -10.75 -26.6699 -24 -26.6699zM384 288h16c4.41992 0 8 -3.58008 8 -8v-136h-32v136c0 4.41992 3.58008 8 8 8zM448 288h16c4.41992 0 8 -3.58008 8 -8v-136h-32v136c0 4.41992 3.58008 8 8 8zM456 320c-13.25 0 -24 11.9502 -24 26.6699s24 53.3301 24 53.3301
s24 -38.5996 24 -53.3301c0 -14.7295 -10.75 -26.6699 -24 -26.6699zM520 320c-13.25 0 -24 11.9502 -24 26.6699s24 53.3301 24 53.3301s24 -38.5996 24 -53.3301c0 -14.7295 -10.75 -26.6699 -24 -26.6699zM512 288h16c4.41992 0 8 -3.58008 8 -8v-136h-32v136
c0 4.41992 3.58008 8 8 8zM312 368c-13.25 0 -24 11.9502 -24 26.6699s24 53.3301 24 53.3301s24 -38.5996 24 -53.3301c0 -14.7295 -10.75 -26.6699 -24 -26.6699zM224 288h16c4.41992 0 8 -3.58008 8 -8v-136h-32v136c0 4.41992 3.58008 8 8 8zM608 288
c4.41992 0 8 -3.58008 8 -8v-136c0 -44.1797 -35.8203 -80 -80 -80h-208v-96h200c4.41992 0 8 -3.58008 8 -8v-16c0 -4.41992 -3.58008 -8 -8 -8h-432c-4.41992 0 -8 3.58008 -8 8v16c0 4.41992 3.58008 8 8 8h200v96h-208c-44.1797 0 -80 35.8203 -80 80v136
c0 4.41992 3.58008 8 8 8h16c4.41992 0 8 -3.58008 8 -8v-136c0 -26.5098 21.4902 -48 48 -48h208v232c0 4.41992 3.58008 8 8 8h16c4.41992 0 8 -3.58008 8 -8v-232h208c26.5098 0 48 21.4902 48 48v136c0 4.41992 3.58008 8 8 8h16zM48 346.67
c0 -14.7295 -10.75 -26.6699 -24 -26.6699s-24 11.9502 -24 26.6699s24 53.3301 24 53.3301s24 -38.6104 24 -53.3301zM600 400c0 0 24 -38.5996 24 -53.3301c0 -14.7295 -10.75 -26.6699 -24 -26.6699s-24 11.9502 -24 26.6699s24 53.3301 24 53.3301zM96 288h16
c4.41992 0 8 -3.58008 8 -8v-136h-32v136c0 4.41992 3.58008 8 8 8zM104 320c-13.25 0 -24 11.9502 -24 26.6699s24 53.3301 24 53.3301s24 -38.5996 24 -53.3301c0 -14.7295 -10.75 -26.6699 -24 -26.6699zM168 320c-13.25 0 -24 11.9502 -24 26.6699
s24 53.3301 24 53.3301s24 -38.5996 24 -53.3301c0 -14.7295 -10.75 -26.6699 -24 -26.6699zM160 288h16c4.41992 0 8 -3.58008 8 -8v-136h-32v136c0 4.41992 3.58008 8 8 8z" />
    <glyph glyph-name="hat-witch" unicode="&#xf6e7;" horiz-adv-x="576" 
d="M573.99 8.11035c2.95996 -3.40039 2.62012 -8.68066 -0.839844 -11.5508c-47.1699 -39.1094 -106.54 -60.5596 -168.07 -60.5596h-234.16c-61.5303 0 -120.91 21.4502 -168.07 60.5596c-3.45996 2.87012 -3.7998 8.16016 -0.839844 11.5508l10.4805 12.04
c2.83008 3.25 7.64941 3.54004 10.9697 0.799805c15.4297 -12.75 32.6797 -22.5605 50.6104 -30.8398l132.89 291.56c11.125 25.0273 29.8447 45.6523 53.4697 59.1504l166.34 102.96c4.9707 2.83984 10.4404 4.21973 15.8701 4.21973
c0.00878906 0 0.0214844 0.00488281 0.0302734 0.00488281c8.82617 0 16.8223 -3.58398 22.6104 -9.375l69.3496 -72.6396c8.57031 -8.57031 11.5605 -21.25 7.73047 -32.75l-30.3604 -77.2402l-14.04 42.1201c-4.36035 13.0703 -16.5898 21.8799 -30.3604 21.8799h-39.1992
c-13.7803 0 -26 -8.80957 -30.3506 -21.8701l-6.34961 -19.04c-2.12012 -6.35938 -3.25391 -13.2178 -3.25391 -20.2852c0 -8.93164 1.83301 -17.4385 5.14355 -25.165l108.521 -243.449c17.8594 8.26953 35.0498 18.0498 50.4199 30.75
c3.31934 2.75 8.13965 2.44922 10.9697 -0.800781zM236.21 268.67l-106.18 -232.97c13.1895 -2.25977 26.54 -3.70996 40.0996 -3.70996h53.8701v4c0 15.4395 12.5596 28 28 28h72c15.4404 0 28 -12.5605 28 -28v-4h53.8799c13.8203 0 27.4102 1.54004 40.8301 3.87988
l-82.3496 184.729c-9.45996 22.0605 -10.46 46.2705 -3.02051 68.6006l6.35059 19.04c8.44531 25.418 32.4131 43.7598 60.6514 43.7598h0.0585938h39.1992c0.0244141 0 0.0810547 -0.0146484 0.105469 -0.0146484c15.876 0 30.4072 -5.80469 41.585 -15.4053
l2.67969 6.80957l-69.3193 72.6006l-165.37 -102.38c-18.8398 -10.79 -32.71 -26.1299 -41.0703 -44.9404zM103.99 -21.4102c21.5898 -6.51953 43.9697 -10.5898 66.9297 -10.5898h53.0801v32h-53.8799c-18.1904 0 -36.0303 2.46973 -53.6104 6.05957zM256 -32h64v64h-64
v-64zM352 -32h53.0703c23.0293 0 45.5 4.08984 67.1396 10.6504l-12.2695 27.5195c-17.7305 -3.65039 -35.7207 -6.16992 -54.0703 -6.16992h-53.8701v-32z" />
    <glyph glyph-name="head-side" unicode="&#xf6e9;" 
d="M509.21 173c9.40039 -21.1602 -6.08984 -45 -29.25 -45h-31.96v-64c0 -35.3496 -28.6504 -64 -64 -64h-64v-56c0 -4.41992 -3.58008 -8 -8 -8h-16c-4.41992 0 -8 3.58008 -8 8v88h96c17.6396 0 32 14.3604 32 32v96h63.9697
c-8.63965 19.4404 -17.8398 46.5596 -27.5693 75.2695c-13.3408 39.3301 -29.9307 88.2705 -42.4502 106.07c-32.8906 46.75 -86.6699 74.6602 -143.86 74.6602h-66.0801c-89.3496 0 -164.66 -68.9805 -167.899 -153.77c-1.81055 -47.6104 17.5996 -93.2607 53.25 -125.23
l10.6396 -9.54004v-183.46c0 -4.41992 -3.58008 -8 -8 -8h-16c-4.41992 0 -8 3.58008 -8 8v169.18c-40.9004 36.6807 -66.1299 90.4902 -63.8604 150.271c3.98047 104.47 95.3301 184.55 199.87 184.55h66.0801c68.4697 0 131.59 -33.5996 170.04 -88.25
c24.6396 -35.0195 52.1396 -139.63 73.0801 -186.75zM352 256c0 -17.6699 -14.3301 -32 -32 -32s-32 14.3301 -32 32s14.3301 32 32 32s32 -14.3301 32 -32z" />
    <glyph glyph-name="head-vr" unicode="&#xf6ea;" 
d="M480 384c17.6699 0 32 -14.3301 32 -32v-128c0 -17.6699 -14.3301 -32 -32 -32h-186.57c-29.3096 0 -56.5898 12.6699 -75.5801 32.7695c-0.669922 -0.179688 -1.12988 -0.769531 -1.84961 -0.769531h-184c-17.6699 0 -32 14.3301 -32 32v64
c0 15.8398 11.71 28.3896 26.8203 30.96c35.0996 58.3398 100.77 97.04 173.189 97.04h34.0801c57.5098 0 110.95 -23.9805 149.42 -64h96.4902zM32 256h166.23c-3.21094 8.46973 -5.60059 17.3398 -6.10059 26.8398c-0.679688 13.1104 1.42969 25.6006 5.53027 37.1602
h-165.66v-64zM216.57 351.76c17.5801 19.6807 42.96 32.2402 71.4297 32.2402h45.9199c-29.0303 20.21 -63.5303 32 -99.8203 32h-34.0801c-53.8896 0 -102.109 -25.4199 -132.939 -64h148.92c0.219727 0 0.349609 -0.219727 0.570312 -0.240234zM384 224v128h-96
c-35.29 0 -64 -28.71 -64 -64s28.71 -64 64 -64h96zM480 224v128h-64v-128h64zM46.1904 192c9.0293 -20.5898 21.9092 -39.5098 39.1797 -55l10.6299 -9.54004v-183.46c0 -4.41992 -3.58008 -8 -8 -8h-16c-4.41992 0 -8 3.58008 -8 8v169.18
c-23.6699 21.2305 -41.8799 48.2803 -52.7402 78.8203h34.9307zM384 160h95.7598c-0.00976562 -16.8496 -13.3496 -32 -31.7998 -32h-31.96v-64c0 -35.3496 -28.6504 -64 -64 -64h-32v-56c0 -4.41992 -3.58008 -8 -8 -8h-16c-4.41992 0 -8 3.58008 -8 8v88h64
c17.6396 0 32 14.3604 32 32v96z" />
    <glyph glyph-name="helmet-battle" unicode="&#xf6eb;" 
d="M510.28 224.63c3.85938 -15.0498 1.16016 -30.9102 -7.41016 -43.5098c-8.99023 -13.2305 -23.5303 -21.1201 -38.8896 -21.1201c-3.30078 0 -6.49023 0.419922 -9.59082 1.11035c7.39062 -45.6201 19.2207 -81.5 24.7207 -104.641
c3.42969 -14.4297 -3.59082 -29.3701 -16.3203 -35.2393l-190.81 -85.2305v256l80 16v16h-191.99v-16l80 -16v-256l-190.8 85.2305c-12.7305 5.86914 -19.75 20.8096 -16.3203 35.2393c5.5 23.1406 17.3301 59.0205 24.7197 104.641
c-3.08984 -0.69043 -6.28027 -1.11035 -9.57031 -1.11035c-15.3594 0 -29.8994 7.88965 -38.8896 21.1201c-8.57031 12.5996 -11.2695 28.46 -7.41016 43.5098l80.8604 218.84c1.15039 3.11035 3.79004 4.53027 6.41992 4.53027
c3.50977 0 7.00977 -2.51953 7.00977 -6.92969v-106.37c54.5898 78.0195 159.98 113.3 159.98 113.3s105.42 -35.29 160 -113.32v106.391c0 4.41016 3.50977 6.92969 7.00977 6.92969c2.62988 0 5.25977 -1.41992 6.41016 -4.53027zM64.0098 211.11v89.7793
l-31.5801 -85.4697c-1.13965 -5.75977 -0.0195312 -11.6396 3.16016 -16.3096c3.02051 -4.4502 7.66992 -7.11035 12.4199 -7.11035c8.66992 0 16 8.75 16 19.1104zM303.99 -14.6602l143.87 64.25c-1.51074 6.2998 -3.52051 13.5498 -5.76074 21.7002
c-10.3994 37.7598 -26.1094 94.8096 -26.1094 165.88c0 104.67 -123.271 161.92 -159.95 176.63c-36.6299 -14.7998 -160.04 -72.4199 -160.04 -176.62c0 -71.0693 -15.7197 -128.13 -26.1104 -165.88c-2.23926 -8.14941 -4.25 -15.3994 -5.75977 -21.7002l143.87 -64.2598
v180.43l-80 16v74.2305h255.99v-74.2305l-80 -16v-180.43zM476.41 199.11c3.16992 4.66992 4.2998 10.54 3.16016 16.2998l-31.5801 85.4697v-89.7695c0 -10.3604 7.33008 -19.1104 16 -19.1104c4.75 0 9.39941 2.66016 12.4199 7.11035z" />
    <glyph glyph-name="hiking" unicode="&#xf6ec;" horiz-adv-x="384" 
d="M376 288c4.41992 0 8 -3.58008 8 -8v-336c0 -4.41992 -3.58008 -8 -8 -8h-16c-4.41992 0 -8 3.58008 -8 8v218.95c-5.03027 -1.7998 -10.3604 -2.9502 -16 -2.9502h-53.5801c-14.9102 0 -28.71 6.75 -37.8799 18.5195l-1.52051 1.9502l-5.01953 -20.0596
l48.5303 -31.7998c20.96 -15 33.4697 -39.3301 33.4697 -65.0801v-79.5303c0 -26.4697 -21.5303 -48 -48 -48s-48 21.5303 -48 48v71.0303l-38.2803 25.8994l-27.1299 -108.52c-5.33008 -21.4297 -24.4902 -36.4004 -46.5801 -36.4004
c-3.89941 0 -7.80957 0.480469 -11.6094 1.43066c-25.6602 6.38965 -41.3506 32.4697 -34.9707 58.1992l36.7803 147.08l-80.2598 22.9502c-7.15039 1.7002 -13.7197 6.48047 -17.8105 13.3105c-4 6.65918 -5.15918 14.4395 -3.21973 21.9395l21.0605 81.5801
c11.3799 43.3398 57.2197 69.71 102 59.0898l45.8398 -13.1602c-11.7803 13.2402 -18.2402 29.5 -18.2402 47.5703c0 19.5801 7.28027 37.2002 21.04 50.96s31.3799 21.04 50.96 21.04c19.5703 0 37.1895 -7.28027 50.9502 -21.04
c13.7598 -13.7598 21.04 -31.3896 21.04 -50.96s-7.27051 -37.2002 -21.04 -50.96c-4.39062 -4.37988 -9.28027 -7.86035 -14.3906 -10.9004l1.40039 -1.39941l1.21973 -1.56055l43.0801 -55.1797h30.1602c5.63965 0 10.9697 -1.16016 16 -2.9502v26.9502
c0 4.41992 3.58008 8 8 8h16zM195.24 404.33c-7.77051 -7.77051 -11.6602 -17.2305 -11.6602 -28.3301s3.90039 -20.5596 11.6699 -28.3301c7.76953 -7.78027 17.2197 -11.6699 28.3301 -11.6699c11.0996 0 20.5596 3.90039 28.3301 11.6699
c7.78027 7.77051 11.6699 17.2305 11.6699 28.3301s-3.90039 20.5596 -11.6699 28.3301c-7.77051 7.78027 -17.2197 11.6699 -28.3301 11.6699s-20.5605 -3.88965 -28.3398 -11.6699zM31.9199 192.91l0.120117 0.450195l0.219727 -0.530273zM32.6699 195.89
l75.8203 -21.6699l26.2793 105.101c2.05273 8.25879 5.51855 16.0879 10.0605 23.0098l-28.9805 8.32031c-27.46 6.58008 -55.96 -9.59082 -62.8994 -36.2002zM127.54 -19.8799l29.9697 119.87l-28.2295 19.0801l-32.7998 -131.2
c-2.12012 -8.56055 3.06934 -17.25 11.6592 -19.3896c1.31055 -0.320312 2.59082 -0.480469 3.87012 -0.480469c7.19043 0 13.7207 4.83984 15.5303 12.1201zM336 192c8.83984 0 16 7.16016 16 16s-7.16016 16 -16 16h-45.7695l-52.6904 67.4805
c-8.09961 8.0791 -18.8096 12.5195 -30.2197 12.5195c-0.0253906 0 -0.0449219 -0.0195312 -0.0693359 -0.0195312c-20.0088 0 -36.8213 -13.7979 -41.4307 -32.3906l-26.9404 -107.72c-0.30957 -1.24219 -0.490234 -2.52637 -0.490234 -3.86426
c0 -5.36816 2.64941 -10.1221 6.70996 -13.0254l104.181 -70.4209c4.21973 -3 6.71973 -7.86914 6.71973 -13.0293v-79.5303c0 -8.83984 7.16016 -16 16 -16s16 7.16016 16 16v79.5303c0 15.4502 -7.5 30.04 -20.0898 39.0596l-67.04 43.8799
c0.25 0.640625 0.910156 0.970703 1.08008 1.65039l25.96 103.86l41.8799 -53.8105c3.03027 -3.88965 7.67969 -6.16992 12.6201 -6.16992h53.5898z" />
    <glyph glyph-name="hockey-mask" unicode="&#xf6ee;" horiz-adv-x="448" 
d="M376.61 393.54c64.0293 -56.04 102.399 -169.98 38.7598 -361.54c-31.9004 -96 -191.37 -96 -191.37 -96s-159.47 0 -191.37 96c-63.6396 191.56 -25.2695 305.5 38.7598 361.54c41.4805 36.3096 97.04 54.46 152.61 54.46c55.5596 0 111.13 -18.1504 152.61 -54.46z
M385 42.0898c67.54 203.29 10.5303 292.37 -29.4697 327.37c-33.79 29.5801 -81.7305 46.54 -131.53 46.54s-97.75 -16.96 -131.53 -46.54c-40 -35 -97.0098 -124.08 -29.4697 -327.37c23.9404 -72.0703 159.64 -74.0898 161 -74.0898
c37.9404 0.120117 140.92 13.6602 161 74.0898zM272 336c-8.83008 0 -16 7.16016 -16 16s7.16016 16 16 16s16 -7.16016 16 -16s-7.16016 -16 -16 -16zM176 336c-8.83984 0 -16 7.16016 -16 16s7.16016 16 16 16s16 -7.16016 16 -16s-7.16016 -16 -16 -16zM192 32
c8.83984 0 16 -7.16016 16 -16s-7.16016 -16 -16 -16s-16 7.16016 -16 16s7.16016 16 16 16zM192 96c8.83984 0 16 -7.16016 16 -16s-7.16016 -16 -16 -16s-16 7.16016 -16 16s7.16016 16 16 16zM192 160c8.83984 0 16 -7.16016 16 -16s-7.16016 -16 -16 -16
s-16 7.16016 -16 16s7.16016 16 16 16zM172 272c19.8799 0 36 -14.3301 36 -32c0 -35.3496 -32.2402 -64 -72 -64c-39.7695 0 -72 28.6504 -72 64c0 17.6699 16.1201 32 36 32h72zM136 208c33.0996 0 47.7197 32 36 32h-72c-12.0596 0 2.41016 -32 36 -32zM224 320
c8.83984 0 16 -7.16016 16 -16s-7.16016 -16 -16 -16s-16 7.16016 -16 16s7.16016 16 16 16zM256 32c8.83984 0 16 -7.16016 16 -16s-7.16016 -16 -16 -16s-16 7.16016 -16 16s7.16016 16 16 16zM256 96c8.83984 0 16 -7.16016 16 -16s-7.16016 -16 -16 -16
s-16 7.16016 -16 16s7.16016 16 16 16zM256 160c8.83984 0 16 -7.16016 16 -16s-7.16016 -16 -16 -16s-16 7.16016 -16 16s7.16016 16 16 16zM348 272c19.8799 0 36 -14.3301 36 -32c0 -35.3496 -32.2402 -64 -72 -64s-72 28.6504 -72 64c0 17.6699 16.1201 32 36 32h72z
M312 208c33.0898 0 47.7197 32 36 32h-72c-12.0596 0 2.40039 -32 36 -32z" />
    <glyph glyph-name="house-damage" unicode="&#xf6f1;" horiz-adv-x="576" 
d="M573.51 228.06c2.81055 -2.35938 3.37012 -6.63965 1.00977 -9.55957l-14.1699 -17.5498c-2.35938 -2.91992 -6.62988 -3.37012 -9.55957 -1.00977l-38.79 31.2793v-279.22c0 -8.83984 -7.16016 -16 -16 -16h-175.86l-20.5498 32l-19.3701 30.1504l104.11 71.9893
l-148.05 153.86l60.1602 -134.1l-104.11 -71.9902l22.6895 -49.9102l14.5508 -32h-149.57c-8.83984 0 -16 7.16016 -16 16v279.3l-38.75 -31.25c-1.16699 -0.946289 -2.65625 -1.52051 -4.27441 -1.52051c-2.13477 0 -4.04102 0.987305 -5.28516 2.53027l-14.1709 17.5508
c-2.35938 2.80957 -1.90918 7.08984 1.01074 9.44922l262.88 211.931c13.1602 10.6895 32.0596 10.6895 45.2197 0l169.37 -136.54v72.5498c0 4.41992 3.58008 8 8 8h16c4.41992 0 8 -3.58008 8 -8v-98.3496zM480 -32v289.02l-187.82 151.471
c-1.14648 0.944336 -2.62402 1.5127 -4.22363 1.5127c-1.60059 0 -3.06934 -0.568359 -4.21582 -1.5127l-187.74 -151.391v-289.1h83.8701l-16.6699 36.6699c-6.41016 14.0898 -1.7998 30.75 10.9297 39.5605l82.2197 56.8496l-49.2695 109.82
c-6.37012 14.1992 -1.59961 30.9092 11.29 39.6191c5.45996 3.68066 11.7002 5.48047 17.8994 5.48047c8.46094 0 16.8506 -3.33984 23.0703 -9.80957l148.061 -153.86c6.5 -6.75977 9.71973 -16.04 8.7793 -25.3799
c-0.956055 -9.57812 -6.11621 -17.9316 -13.6396 -23.1299l-78.6699 -54.4004l13.7598 -21.4199h142.37z" />
    <glyph glyph-name="hryvnia" unicode="&#xf6f2;" horiz-adv-x="384" 
d="M376 224h-128.89l-64.71 -64h193.6c4.41992 0 8 -3.58008 8 -8v-16c0 -4.41992 -3.58008 -8 -8 -8h-225.96l-35.7197 -35.3398c-10.1904 -10.0801 -16.0303 -24.4697 -16.0303 -39.4697c0 -29.3301 21.7998 -53.1904 48.5801 -53.1904h84.4199
c14.3896 0 28.1201 5.01953 38.7002 14.1104l33.5195 28.8096c1.40137 1.20215 3.22461 1.93457 5.21289 1.93457c2.42969 0 4.60742 -1.08398 6.07715 -2.79492l10.4199 -12.1396c1.19922 -1.40039 1.93066 -3.2207 1.93066 -5.20703
c0 -2.42773 -1.08301 -4.60352 -2.79004 -6.07324l-33.5205 -28.7998c-16.3594 -14.0703 -37.5098 -21.8398 -59.5596 -21.8398h-84.4199c-44.4404 0 -80.5801 38.2197 -80.5801 85.1904c0 23.4893 9.2998 46.1699 25.5293 62.2197l12.7305 12.5898h-96.54
c-4.41992 0 -8 3.58008 -8 8v16c0 4.41992 3.58008 8 8 8h128.89l64.71 64h-193.6c-4.41992 0 -8 3.58008 -8 8v16c0 4.41992 3.58008 8 8 8h225.96l35.7305 35.3398c10.1895 10.0801 16.0293 24.4697 16.0293 39.4697c0 29.3301 -21.7998 53.1904 -48.5801 53.1904
h-84.4199c-14.3896 0 -28.1299 -5.01953 -38.71 -14.1104l-33.5195 -28.8096c-3.35059 -2.87988 -8.40039 -2.49023 -11.2803 0.860352l-10.4199 12.1396c-1.19922 1.40039 -1.92969 3.2207 -1.92969 5.20703c0 2.42773 1.08203 4.60352 2.79004 6.07324l33.5098 28.7998
c16.3594 14.0703 37.5098 21.8398 59.5596 21.8398h84.4199c44.4404 0 80.5801 -38.2197 80.5801 -85.1904c0 -23.4893 -9.2998 -46.1699 -25.5293 -62.2197l-12.7305 -12.5898h96.54c4.41992 0 8 -3.58008 8 -8v-16c0 -4.41992 -3.58008 -8 -8 -8z" />
    <glyph glyph-name="key-skeleton" unicode="&#xf6f3;" 
d="M329.37 310.63c12.5 12.4902 32.7598 12.4902 45.2598 0c12.4902 -12.5 12.4902 -32.7598 0 -45.2598c-12.5 -12.5 -32.7598 -12.5 -45.2598 0c-12.4902 12.5 -12.4902 32.7598 0 45.2598zM393.37 374.63c12.5 12.4902 32.7598 12.4902 45.2598 0
c12.5 -12.5 12.5 -32.7598 0 -45.2598s-32.7598 -12.5 -45.2598 0c-12.4902 12.5 -12.4902 32.7598 0 45.2598zM448 448c35.3496 0 64 -28.6504 63.9902 -64v-127.98c0 -35.3496 -28.6504 -64 -64 -64h-128c-11.8506 0 -22.7998 3.44043 -32.3203 9.05078l-50.7197 -50.7207
l46.3994 -46.3994c6.19043 -6.2002 6.19043 -16.2402 0 -22.4307l-44.8594 -44.8594c-6.23047 -6.21973 -16.2705 -6.16016 -22.4307 0l-46.3994 46.3994l-28.71 -28.7197l46.3994 -46.3994c6.19043 -6.2002 6.19043 -16.2402 0 -22.4307l-44.8594 -44.8594
c-6.23047 -6.2207 -16.2705 -6.16016 -22.4307 0l-46.3994 46.3994l-48.7002 -48.7002c-3.12012 -3.11914 -8.19043 -3.11914 -11.3096 0l-11.3105 11.3105c-3.12012 3.12012 -3.12012 8.18945 0 11.3096l262.71 262.71c-5.60938 9.52051 -9.0498 20.4707 -9.0498 32.3203
v128c0 35.3496 28.6504 64 64 64h128zM153.71 -3.28027l-35.1797 35.1807l-22.4307 -22.4307l35.1807 -35.1797zM249.71 92.7197l-35.1904 35.1904l-22.4297 -22.4297l35.1904 -35.1904zM480 256v128c0 17.6396 -14.3604 32 -32 32h-128c-17.6396 0 -32 -14.3604 -32 -32
v-128c0 -17.6396 14.3604 -32 32 -32h128c17.6396 0 32 14.3604 32 32z" />
    <glyph glyph-name="knife-kitchen" unicode="&#xf6f5;" horiz-adv-x="576" 
d="M566.64 382.06c12.4805 -12.5 12.4805 -32.7598 0 -45.2598l-113.8 -119.42l-11.5898 -68.8301c10.0703 -12.7695 9.61035 -31.4902 -2.11035 -43.1602l-100.449 -100.04c-49.1406 -49.1592 -120.91 -69.3496 -193.87 -69.3496
c-46.3203 0 -93.1299 8.13965 -134.92 22.1699c-10.5 3.53027 -13.2607 17.7305 -5.32031 25.6904l461.25 454.77c6.22949 6.25 14.4004 9.37012 22.5801 9.37012s16.3496 -3.12012 22.5898 -9.37012zM317.34 28.4004l100.51 100.09l-110.33 114.66l-261.67 -262.381
c32.3906 -8.38965 66.1406 -12.7695 98.9707 -12.7695c72.3096 0 133.58 21.4502 172.52 60.4004zM422.04 230.54l122.729 128.78l-56.3594 56.6797c-0.19043 0 -109.86 -104.89 -158.23 -151.16l81.3604 -84.5498zM432 320c8.83984 0 16 -7.16016 16 -16
s-7.16016 -16 -16 -16s-16 7.16016 -16 16s7.16016 16 16 16zM464 352c0 8.83984 7.16016 16 16 16s16 -7.16016 16 -16s-7.16016 -16 -16 -16s-16 7.16016 -16 16z" />
    <glyph glyph-name="leaf-maple" unicode="&#xf6f6;" 
d="M496.06 284.53c20.8105 -12.4902 21.4307 -42.6602 0.760742 -55.8301l-67.5 -42.9404c20.3193 -7.33008 25.5596 -30.79 19.2197 -42.5195l-7.41016 -13.7998l40.0898 -35.3809c15.7305 -12.9492 16.3105 -37.6191 -0.339844 -50.9697l-39.75 -35.0898l8.83984 -17.5
c8.85059 -22.7803 -15.1396 -45.29 -38.9697 -40l-142.46 29.4004l-10.25 -23.9805c-5.21973 -12.1104 -17.0703 -19.9102 -30.1904 -19.9102c-13.0801 0 -25 7.74023 -30.1895 19.9199l-46.6201 108.74l-123.98 -123.979
c-3.11914 -3.13086 -7.21973 -4.69043 -11.3096 -4.69043s-8.19043 1.55957 -11.3096 4.69043c-6.25 6.23926 -6.25 16.3691 0 22.6191l123.979 123.98l-108.79 46.6201c-26.4502 11.3398 -26.4502 49 0 60.3398l24 10.2998l-29.4102 142.69
c-6.37988 28.6895 25.2402 47.2998 43.7207 37.3096l13.8096 -7.41016l35.5703 40.3301c5.79004 7.23047 15.1299 11.7002 25.1602 11.7002c10.1992 0 19.4492 -4.59961 25.6191 -12.3096l35.0908 -39.7207l13.8096 7.41016
c9.62988 5.20996 34.2002 3.32031 42.5303 -19.2002l42.9102 67.4502c6.14941 9.66992 17.5293 15.2197 28.1191 15.2002c11.4707 -0.160156 21.8105 -6.11035 27.7207 -15.9297l16.4102 -27.3398l75.9697 8.44922c22.6396 2.14062 38.3896 -16.7695 36.25 -36.2695
l-8.44043 -75.9697zM342.94 168.72l136.689 86.96l-44.9697 28.3799l10.6895 96.3701l-97.2793 -9.7793l-26.9707 44.9395l-88.3691 -136.66c-9.82031 -15.2695 -33.4502 -4.96973 -29 12.5605l16.0898 62.9395l-0.160156 0.470703l-33.4102 -17.9502l-52.4102 59.3301
l-54.6602 -59.3301l-32.3096 17.3594l33.6299 -168.89l-48 -20.5801l120.66 -53.0498l155.52 155.51c6.25 6.25 16.3701 6.25 22.6201 0c6.25 -6.24023 6.25 -16.3701 0 -22.6201l-155.64 -155.64l51.6797 -120.54l22.0605 48.0195l169.319 -34.4199l-17.7793 33.1201
l60.4297 53.4902l-60.4297 53.5098l17.3398 32.2998l-62.7803 -14.7998c-17.5801 -4.46973 -27.8096 19.29 -12.5596 29z" />
    <glyph glyph-name="leaf-oak" unicode="&#xf6f7;" 
d="M511.52 240.83c5.05078 -46.25 -30.9492 -64.9297 -67.46 -85.6201c22.5801 -27.9502 18.9502 -51.0703 17.5303 -58.2598c-14.5596 -73.7002 -117.72 -55.5098 -129.09 -54.2803c9.75977 -34.9297 -11.6699 -74.0098 -65.4102 -74.0098
c-38.6201 0 -72.8799 28.6797 -92.1895 21.3896c-36.7705 -13.2402 -70.1406 -11.5996 -94.3809 3.85059l-53.21 -53.21c-3.11914 -3.13086 -7.21973 -4.69043 -11.3096 -4.69043s-8.19043 1.55957 -11.3096 4.69043c-6.25 6.23926 -6.25 16.3691 0 22.6191l53.21 53.21
c-15.4502 24.25 -17.1006 57.6104 -3.85059 94.3809c7.29004 19.3096 -21.3896 53.5693 -21.3896 92.1895c0 53.7402 39.0801 75.1699 74.0098 65.4102c-1.21973 11.3604 -19.4199 114.53 54.29 129.09c7.19043 1.41016 30.3096 5.0498 58.25 -17.5303
c20.6797 36.5205 39.3604 72.5107 85.6104 67.4707c37.6895 -4.15039 54.2793 -37.2207 58.8301 -44.6299c48.7197 14.2598 75.75 -4.45996 86.9297 -16.3105c11.8496 -11.1699 30.5703 -38.2197 16.3096 -86.9297c7.41992 -4.5498 40.4902 -21.1406 44.6299 -58.8301z
M470.34 210.22c18.4199 19.9199 9 48.3701 -17.0596 59.6699c-14.3398 6.29004 -21.6504 22.9307 -17.0898 38.7305c7.14941 24.3701 4.29004 43.4902 -8.2207 55.3398c-11.8496 12.5098 -30.9697 15.3701 -55.3496 8.21973c-15.79 -4.5498 -32.4297 2.75 -38.7305 17.1006
c-11.29 26.0596 -39.7393 35.4795 -59.6592 17.0596c-6.43066 -5.95996 -10.0908 -12.2002 -45.9902 -75.1201c-28.4502 23.4102 -27.29 22.54 -31.1299 25.5303c-27.0801 21.1201 -45.2607 4.55957 -53.8408 -10.4697c-13.7393 -24.0107 -8.25 -40.1504 1.96094 -139.221
c0 0 -37.5303 26.3105 -38.8604 27.0605c-28.4902 16.3604 -48.0498 -10.6602 -40.2598 -44.5303c3.58984 -15.5898 12.5693 -31.9795 17.5898 -50c10.4199 -37.0098 -16.7705 -70.3896 -2.68066 -99.9395l227.66 227.649c6.25 6.25 16.3799 6.25 22.6299 0
c6.25 -6.24023 6.25 -16.3701 0 -22.6201l-227.659 -227.66c29.5498 -14.0996 62.9297 13.1006 99.9395 2.68066c18.0205 -5.02051 34.4102 -14.0098 50 -17.5898c33.8701 -7.78027 60.8906 11.7793 44.5303 40.2695c-0.75 1.33008 -27.0605 38.8604 -27.0605 38.8604
c99.0703 -10.21 115.221 -15.7002 139.221 -1.9707c15.0195 8.58008 31.5898 26.7607 10.4697 53.8408c-3 3.83008 -2.12988 2.66992 -25.54 31.1201c62.9297 35.8994 69.1699 39.5596 75.1299 45.9893z" />
    <glyph glyph-name="mace" unicode="&#xf6f8;" 
d="M501.02 249.08c14.5703 -2.91992 14.6602 -10.9697 0.130859 -14.1797l-71.2607 -15.7705c-8.75977 -53.1104 -49.8896 -95.0898 -102.68 -104.79l-14.29 -71.3594c-2.91016 -14.5801 -10.9697 -14.6602 -14.1797 -0.140625l-15.7803 71.2803
c-9.9502 1.66016 -19.3398 4.78027 -28.3799 8.58008l-182 -182.021c-6.25 -6.25 -16.3799 -6.25 -22.6299 0l-45.2598 45.2607c-6.25 6.25 -6.25 16.3799 0 22.6299l181.899 181.899c-3.54004 8.36035 -6.51953 17 -8.21973 26.1699l-71.3701 14.29
c-14.5801 2.91016 -14.6602 10.9707 -0.139648 14.1807l71.2598 15.7695c8.74023 53 49.7197 94.9404 102.36 104.75l14.2891 71.3896c2.91016 14.5801 10.9707 14.6602 14.1807 0.140625l15.7695 -71.25c53.1299 -8.7002 95.1602 -49.7803 104.931 -102.54zM61.25 -25.3701
l164.64 164.65c-8.46973 6.5498 -16.1592 14.0596 -22.7393 22.5098l-164.53 -164.53zM304 144c53.0195 0 96 42.9805 96 96s-42.9805 96 -96 96s-96 -42.9805 -96 -96s42.9805 -96 96 -96zM304 288c26.4697 0 48 -21.5303 48 -48s-21.5303 -48 -48 -48s-48 21.5303 -48 48
s21.5303 48 48 48zM304 224c8.80957 0 16 7.16992 16 16s-7.19043 16 -16 16s-16 -7.16992 -16 -16s7.19043 -16 16 -16z" />
    <glyph glyph-name="mountain" unicode="&#xf6fc;" horiz-adv-x="640" 
d="M634.92 -14.7002c3.2041 -4.98145 5.06348 -10.9756 5.06348 -17.334c0 -5.53906 -1.41113 -10.751 -3.89355 -15.2959c-5.60938 -10.2803 -16.3799 -16.6699 -28.0898 -16.6699h-576c-12.1191 0 -22.6582 6.7168 -28.0898 16.6602
c-2.48242 4.5459 -3.89355 9.82715 -3.89355 15.3672c0 6.36035 1.85938 12.2891 5.06348 17.2725l288 448c5.88965 9.16016 16.0303 14.7002 26.9199 14.7002s21.0303 -5.54004 26.9199 -14.7002zM320 416l-110.14 -171.33l46.1396 -46.0498l57.3799 57.3799h109.48z
M32 -32h576l-164.58 256h-116.8l-70.6201 -70.6201l-63.8096 63.8105z" />
    <glyph glyph-name="mountains" unicode="&#xf6fd;" horiz-adv-x="640" 
d="M635.73 41.0898c11.7295 -18 -2.09082 -41.0898 -24.5908 -41.0898h-580.22c-24.1104 0 -38.9102 25.1904 -26.3398 44.8203l207.9 324.66c6.19922 9.67969 16.8594 14.5195 27.5195 14.5195s21.3203 -4.83984 27.5195 -14.5195l70.79 -110.551l52 79.7607
c5.79004 8.86914 15.7402 13.3096 25.6904 13.3096s19.9004 -4.44043 25.6904 -13.3096zM33.71 30.9805l411.92 1.01953l-205.06 320.22l-0.570312 -0.219727c-0.530273 0 -0.889648 -0.129883 -0.969727 -0.169922zM479.65 32h123.8l-187.45 287.49l-58.7598 -90.1104
l118.189 -184.56c2.64062 -4.12012 3.83008 -8.49023 4.2207 -12.8203z" />
    <glyph glyph-name="network-wired" unicode="&#xf6ff;" horiz-adv-x="640" 
d="M632 208c4.41992 0 8 -3.58008 8 -8v-16c0 -4.41992 -3.58008 -8 -8 -8h-120v-80h64c17.6699 0 32 -14.3301 32 -32v-96c0 -17.6699 -14.3301 -32 -32 -32h-160c-17.6699 0 -32 14.3301 -32 32v96c0 17.6699 14.3301 32 32 32h64v80h-320v-80h64
c17.6699 0 32 -14.3301 32 -32v-96c0 -17.6699 -14.3301 -32 -32 -32h-160c-17.6699 0 -32 14.3301 -32 32v96c0 17.6699 14.3301 32 32 32h64v80h-120c-4.41992 0 -8 3.58008 -8 8v16c0 4.41992 3.58008 8 8 8h296v80h-80c-17.6699 0 -32 14.3301 -32 32v96
c0 17.6699 14.3301 32 32 32h192c17.6699 0 32 -14.3301 32 -32v-96c0 -17.6699 -14.3301 -32 -32 -32h-80v-80h296zM224 64h-160v-96h160v96zM224 320h192v96h-192v-96zM576 64h-160v-96h160v96z" />
    <glyph glyph-name="otter" unicode="&#xf700;" horiz-adv-x="640" 
d="M512 392c8.83984 0 16 -7.16016 16 -16s-7.16016 -16 -16 -16c-8.83008 0 -16 7.16016 -16 16s7.16016 16 16 16zM592 416c26.4697 0 48 -21.5303 48 -48v-16c0 -52.9404 -43.0703 -96 -96 -96c-14.96 0 -31.0098 -3.70996 -44.2197 -10.7402l-44.8203 -23.8398
l30.71 -61.4199h26.3301c35.29 0 64 -28.71 64 -64c0 -17.6699 -14.3301 -32 -32 -32h-97.9004c-12.5303 0.000976562 -23.3691 7.18848 -28.6191 17.6904l-47.3203 94.6396l-48.6104 -25.8496c18.2598 -11.2803 30.4502 -31.4805 30.4502 -54.4805
c0 -17.6699 -14.3301 -32 -32 -32h-208c-8.82031 0 -16 -7.17969 -16 -16s7.17969 -16 16 -16h144c26.4697 0 48 -21.5303 48 -48s-21.5303 -48 -48 -48h-144c-61.7598 0 -112 50.2402 -112 112c0 56.3301 41.79 103.07 96 110.86v1.13965c0 105.87 86.1299 192 192 192
h22.8604l153.25 87.5703c9.64941 5.51953 20.6299 8.42969 31.75 8.42969h20.4893c17.0908 0 33.1699 -6.66016 45.25 -18.7402l13.2607 -13.2598h17.1396zM544 288c20.1201 0 37.8604 9.48047 49.5898 24h-58.0898c-14.7803 0 -29 -7 -38.04 -18.7598l-16.9004 -21.96
l4.19043 2.22949c17.8896 9.52051 38.9902 14.4902 59.25 14.4902zM607.19 344c0.339844 2.65039 0.80957 24 0.80957 24c0 8.83984 -7.16016 16 -16 16h-30.4004l-22.6299 22.6299c-6.04004 6.04004 -14.0693 9.37012 -22.6201 9.37012h-20.4893
c-5.76172 0 -11.2061 -1.54395 -15.8799 -4.20996l-160.62 -91.79h-31.3604c-88.3701 0 -160 -71.6299 -160 -160v-32h-16c-44.1201 0 -80 -35.8896 -80 -80s35.8799 -80 80 -80h144c8.83984 0 16 7.16016 16 16s-7.16016 16 -16 16h-144c-26.4697 0 -48 21.5303 -48 48
s21.5303 48 48 48h208c0 17.6396 -14.3398 32 -32 32h-76.8701l172.98 91.9902l62 -123.99h97.8896c0 17.6396 -14.3398 32 -32 32h-46.1104l-53.5098 107.03l59.71 77.7393c15.0703 19.5605 38.75 31.2305 63.4102 31.2305h71.6904z" />
    <glyph glyph-name="paw-alt" unicode="&#xf701;" horiz-adv-x="448" 
d="M367.31 147.22c29.0605 -16.3994 48.6904 -47.3994 48.6904 -83.1699c0 -53.0098 -42.9805 -95.9795 -96 -95.9795c-1.30957 -0.0507812 -2.59961 -0.0703125 -3.87012 -0.0703125c-48.8799 0 -68.9199 32.0596 -92.1299 32.0596s-43.25 -32.0596 -92.1299 -32.0596
c-1.27051 0 -2.56055 0.0302734 -3.87012 0.0703125c-53.0195 0 -96 42.9697 -96 95.9795c0 35.7705 19.6299 66.7705 48.6797 83.1699c27.0508 15.2705 46.8799 60.8701 67.1699 97.8301c15.7402 28.6406 45.9404 42.9502 76.1504 42.9502
s60.4102 -14.3096 76.1396 -42.9502c20.0303 -36.4199 40.8799 -82.9902 67.1699 -97.8301zM318.92 0.0498047c36.3701 0.0205078 65.0801 28.7197 65.0801 64c0 22.8203 -12.4199 44.0205 -32.4199 55.3105c-30 16.9395 -50.0605 54.8799 -69.46 91.5693
c-3.37988 6.39062 -6.70996 12.6904 -10.0205 18.71c-9.06934 16.5107 -27.0498 26.3604 -48.0996 26.3604s-39.0303 -9.84961 -48.0898 -26.3604c-3.5 -6.37988 -7 -13.04 -10.5205 -19.75c-18.9297 -36.0498 -38.5 -73.3301 -68.96 -90.5293
c-20 -11.29 -32.4199 -32.4902 -32.4199 -55.3105c0 -35.2803 28.71 -63.9795 64 -63.9795l3.87012 -0.0703125c20.1201 0 33.0498 7.71973 46.7402 15.8896c12.7002 7.58008 27.0996 16.1699 45.3896 16.1699s32.6807 -8.58984 45.3906 -16.1699
c13.6895 -8.16992 26.6094 -15.8896 46.7295 -15.8896zM112 248c0 -30.9297 -25.0703 -56 -56 -56s-56 25.0703 -56 56s25.0703 56 56 56s56 -25.0703 56 -56zM32 248c0 -13.2305 10.7695 -24 24 -24s24 10.7695 24 24s-10.7695 24 -24 24s-24 -10.7695 -24 -24zM392 304
c30.9297 0 56 -25.0703 56 -56s-25.0703 -56 -56 -56s-56 25.0703 -56 56s25.0703 56 56 56zM392 224c13.2305 0 24 10.7695 24 24s-10.7695 24 -24 24s-24 -10.7695 -24 -24s10.7695 -24 24 -24zM296 304c-30.9297 0 -56 25.0703 -56 56s25.0703 56 56 56
s56 -25.0703 56 -56s-25.0703 -56 -56 -56zM296 384c-13.2305 0 -24 -10.7695 -24 -24s10.7695 -24 24 -24s24 10.7695 24 24s-10.7695 24 -24 24zM152 304c-30.9297 0 -56 25.0703 -56 56s25.0703 56 56 56s56 -25.0703 56 -56s-25.0703 -56 -56 -56zM152 384
c-13.2305 0 -24 -10.7695 -24 -24s10.7695 -24 24 -24s24 10.7695 24 24s-10.7695 24 -24 24z" />
    <glyph glyph-name="paw-claws" unicode="&#xf702;" 
d="M318.55 225.39c-30.9297 8.14062 -46.4102 49.9404 -34.5693 93.3604c6.5293 23.9199 20.0791 43.0303 36.0195 54.29v74.96l64 -79.9902c15.0195 -17.7002 20.4502 -47.8096 12.0098 -78.75c-7.91016 -29.0098 -37.2998 -74.4297 -77.46 -63.8701zM314.85 310.32
c-16.2998 -59.7705 32.1006 -79.3604 50.29 -12.6504c16.3008 59.7305 -32.0693 79.4404 -50.29 12.6504zM493.5 257.63c13.6699 -18.7402 24.0703 -48.7295 15.2197 -78.2402c-9.91016 -33.0195 -41.0898 -57.4199 -71.5498 -50.1299
c-29.1201 6.95996 -44.29 40.6904 -33.8896 75.3398c7.20996 24.0303 24.8896 41.9102 44.7197 48.46v66.9404zM478.07 188.6c12.7598 42.5303 -31.46 49.0703 -44.1504 6.81055c-12.7402 -42.46 31.4297 -49.1602 44.1504 -6.81055zM256 192
c79.4102 0 191.99 -122.76 192.01 -200.25c0 -34.9004 -26.8096 -55.75 -71.7402 -55.75c-48.4199 0 -80.75 25.0801 -120.26 25.0801c-39.1699 0 -71.4199 -25.0801 -120.26 -25.0801c-44.9297 0 -71.7402 20.8398 -71.7402 55.75c0 77.4902 112.58 200.25 191.99 200.25z
M376.26 -32c39.7305 0 39.7305 17.8799 39.7305 23.75c0 62.9004 -100.181 168.25 -159.99 168.25s-159.99 -105.35 -159.99 -168.26c0 -5.87012 0 -23.75 39.7402 -23.75c20.6201 0 38.2305 5.80957 56.8701 11.96c19.54 6.4502 39.7402 13.1201 63.3896 13.1201
c23.8906 0 44.2305 -6.7002 63.9102 -13.1904c18.5303 -6.11035 36.04 -11.8799 56.3398 -11.8799zM108.73 204.61c10.3994 -34.6504 -4.78027 -68.3799 -33.8906 -75.3506c-30.1895 -7.21973 -61.5498 16.8301 -71.5498 50.1299
c-8.86035 29.5 1.51953 59.4805 15.21 78.2402l45.5098 62.3701v-66.9297c19.8301 -6.55078 37.5098 -24.4307 44.7207 -48.46zM33.9404 188.6c12.6494 -42.1396 56.9492 -35.8799 44.1494 6.81055c-12.6396 42.0596 -56.9902 35.96 -44.1494 -6.81055zM193.45 225.39
c-40.3799 -10.6299 -69.8105 35.8203 -77.46 63.8701c-8.44043 30.9307 -3.00977 61.0498 12.0098 78.75l64.0098 79.9902v-74.96c15.9502 -11.25 29.4902 -30.3701 36.0205 -54.29c11.8398 -43.4199 -3.64062 -85.2197 -34.5801 -93.3604zM197.15 310.32
c-18.3008 67.0996 -66.4902 46.7393 -50.3008 -12.6504c18.3008 -67.0898 66.5 -46.7402 50.3008 12.6504z" />
    <glyph glyph-name="pegasus" unicode="&#xf703;" horiz-adv-x="576" 
d="M575.95 361.73l0.0595703 -93.8809c0.00976562 -20.5498 -13.0498 -38.8193 -32.4902 -45.4492l-25.5195 -8.70996c-5.46973 -1.87012 -36.3398 -9.87012 -55.4502 18.7998l-14.5498 21.8193v-50.5195c0 -29.8496 -11.5 -58.0898 -32 -79.5996v-156.19
c0 -17.6699 -14.3301 -32 -32 -32h-64c-17.6699 0 -32 14.3301 -32 32v128.53l-83.8398 18.6299l-19.29 -53.7305l21.6797 -85.5693c5.10059 -20.1104 -10.0693 -39.8604 -31.0195 -39.8604h-57.5303c-14.7998 0 -27.6602 10.1396 -31.1104 24.5098l-21.1299 87.8604
c-2.58008 10.71 -2.31934 21.9697 0.799805 32.7402l21.9707 74.2793c-15.6299 17.9102 -24.5303 41.04 -24.5303 65.2402c0 5.81055 0.75 11.4199 1.70996 16.96c-19.4795 -6.10938 -33.71 -24.0898 -33.71 -45.5898v-56c0 -4.41992 -3.58008 -8 -8 -8h-16
c-4.41992 0 -8 3.58008 -8 8v56c0 43.7197 35.1104 79.1299 78.6602 79.8604c11.6172 19.1104 29.3408 33.8926 50.5703 41.8193c0.959961 -10.9102 2.98926 -21.5596 6.17969 -31.9199c-23.2002 -10.6396 -39.4102 -33.9297 -39.4102 -61.1299
c0 -22.8701 11.4502 -43 28.8701 -55.1797l-27.6299 -93.4102c-0.806641 -2.79297 -1.24121 -5.72266 -1.24121 -8.77441c0 -2.5498 0.301758 -5.0293 0.871094 -7.40527l21.1299 -87.8604h57.5303l-24.0801 95.0498l32.1201 89.4697l136.43 -30.3193v-154.2h64v170.19
c19.3604 15.4297 32 38.9297 32 65.5996v100.21l48 -16l25.1699 -37.75c2.33008 -3.5 9.12988 -9.45996 18.4805 -6.26953l25.5195 8.70996c6.29883 2.15039 10.8301 8.11816 10.8301 15.1406v0.00878906l-0.0498047 93.8799l-20.3906 24.7803
c11.5205 4.83008 19.6309 16.21 19.6309 29.5h-111.19c-53.0195 0 -96 -42.9805 -96 -96l-0.0595703 -32c-59.8408 0 -106.561 29.7695 -135.881 86.29c-5.33984 -15.1904 -8.05957 -31.0703 -8.05957 -47.3799c0 -60.5098 45.6904 -115.38 107.44 -130.57
c4.16992 -1.03027 6.89941 -4.97949 6.09961 -9.2002l-2.96973 -15.6992c-0.839844 -4.4707 -5.28027 -7.49023 -9.7002 -6.43066c-76.3105 18.2998 -132.87 86.5205 -132.87 161.9c0 26.0098 5.62988 51.1494 16.75 74.6895
c4.29004 9.03027 12.5996 14.1904 23.1299 14.3906c9.96973 -0.150391 19.0303 -6.15039 23.0303 -15.3105c18.3896 -41.8896 45.8096 -67.3896 81.5 -76.5996c2.20996 68.6602 58.4102 123.92 127.59 123.92h111.19c17.6699 0 32 -14.3301 32 -32
c0 -11.3896 -2.99023 -22.2598 -8.38086 -31.71c5.4707 -6.63965 9.13086 -12.9404 9.14062 -22.5596zM496.01 352c0 -8.83984 -7.16016 -16 -16 -16s-16 7.16016 -16 16s7.16016 16 16 16s16 -7.16016 16 -16z" />
    <glyph glyph-name="pumpkin" unicode="&#xf707;" horiz-adv-x="576" 
d="M494.75 337.48c52.4102 -49.4004 81.25 -115.25 81.25 -185.421c0 -70.1699 -28.8398 -136.02 -81.25 -185.42c-21.6201 -20.3994 -49.6602 -30.6299 -77.7803 -30.6299c-22.8398 0 -45.7197 6.77051 -65.2197 20.3604
c-26.5498 -19.54 -57.1797 -20.3701 -63.75 -20.3701c-1.37988 0 -35.96 -0.0800781 -63.75 20.3701c-43.4697 -30.3203 -103.81 -26.7002 -143 10.2803c-52.4102 49.3994 -81.25 115.239 -81.25 185.399c0 70.1699 28.8398 136.03 81.25 185.44
c39.2197 37.0195 99.5898 40.5498 143 10.2598c4.33984 3.19043 8.95996 5.94043 13.7402 8.37988l28.7002 71.75c3.33984 8.31055 10.0293 14.8701 18.3398 18.0303c8.2793 3.17969 17.6895 2.7002 25.6602 -1.27051l39.6191 -19.8193
c10.9102 -5.4502 17.6904 -16.4199 17.6904 -28.6201v-39.1006c41.3301 19.5703 92.2402 12.9404 126.75 -19.6191zM288 -31.9004c124.21 0 121.22 367.9 0 367.9c-124.26 0 -121.09 -367.9 0 -367.9zM296.41 416.01l-19.5801 -48.9102
c20.2197 1.98047 40.96 -1.22949 59.1699 -10.0098v39.1104zM103.19 -10.0801c27.96 -26.3496 72.4795 -28.3301 103.42 -6.36035c-5.89062 8.49023 -11.6104 17.9209 -16.7803 29.6309c-16.6904 37.7998 -25.8799 87.6797 -25.8799 140.47
c0 62.9902 13.5898 125.979 42.21 167.229c-30.9502 21.6602 -75.1699 19.5303 -102.97 -6.67969c-45.9102 -43.2998 -71.1904 -100.88 -71.1904 -162.15c0 -61.2695 25.2803 -118.85 71.1904 -162.14zM472.81 -10.0801c45.9102 43.29 71.1904 100.87 71.1904 162.14
c0 61.2705 -25.2803 118.851 -71.1904 162.141c-27.96 26.3701 -72.4092 28.3496 -103.329 6.43945c28.8594 -41.8799 42.5596 -106.08 42.5596 -170.31c0 -62.9004 -13.46 -125.96 -41.9697 -167.271c30.9199 -21.4492 74.9893 -19.29 102.739 6.86035z" />
    <glyph glyph-name="ram" unicode="&#xf70a;" horiz-adv-x="640" 
d="M496 352c8.83984 0 16 -7.16016 16 -16s-7.16016 -16 -16 -16s-16 7.16016 -16 16s7.16016 16 16 16zM613.31 340.39c16.4707 -8.08984 26.6904 -24.5098 26.6904 -42.8594c0 -7.44043 -2.08984 -20.9707 -20.0596 -52.5205
c-7.4707 -12.9902 -21.3701 -21.0195 -36.2803 -21.0195h-92.6299c3.16016 -7.54004 4.96973 -15.7705 4.96973 -24.3105c0 -17.8799 -7.62012 -34.5996 -20.5 -46.0498c2.94043 -17.0898 -1.30957 -35 -12.1201 -48.9502
c-4.37012 -5.5293 -9.68945 -9.87988 -15.3799 -13.5098v-123.17c0 -17.6699 -14.3301 -32 -32 -32h-64c-17.6699 0 -32 14.3301 -32 32v81.9199c-3.51953 -0.769531 -7.01953 -1.65039 -10.6904 -1.76953c-11.2197 -0.540039 -22.6797 2.70996 -31.8398 8.01953
c-9.0293 -5.33008 -19.29 -8.16992 -29.9102 -8.16992c-0.0214844 0 -0.104492 0.0371094 -0.126953 0.0371094c-10.6357 0 -20.6055 2.87598 -29.1729 7.89258l20.29 -80.0693c5.10059 -20.1006 -10.0693 -39.8604 -31.0195 -39.8604h-57.5303
c-14.79 0 -27.6602 10.1396 -31.1201 24.5195l-21.1201 87.8604c-0.929688 3.87988 -1.12012 7.85059 -1.25977 11.8105c-8.41992 5.5 -15.5801 12.8799 -20.4102 21.9795c-17 0.860352 -33 9.13965 -43.7803 23.1602c-10.8691 13.71 -15.1797 31.6797 -12.1191 48.9795
c-12.6904 11.4102 -20.1904 28.0908 -20.1904 46c0 17.8809 7.62012 34.6006 20.5098 46.0508c-2.93945 17.0898 1.31055 35 12.1201 48.9492c11.0605 14.0107 27.1797 22.2402 44.1201 23.1201c8.20996 15.1904 22.5898 26.3203 39.6201 30.1602
c14.3203 3.03027 28.5996 0.990234 40.8799 -5.66992c18.0703 11.4502 42.8496 11.8896 61.1602 1c11.4697 6.74023 25.2002 8.67969 38.3701 6.79004c4 54.25 48.9102 97.29 104.16 97.29c31.6592 0 60.7295 -12.1904 83.1396 -32h83.9199c26.4697 0 48 -21.5303 48 -48
v-9.26953zM150 -32h57.5303l-20.3301 80.2402c-10.8506 0.149414 -21.6104 3.12988 -30.6406 8.91992c-8.22949 -4.37988 -17.2393 -6.53027 -26.3799 -6.71973zM416 -32v108.83c-8.49023 -12.6396 -21.25 -22.0098 -36.3799 -25.4199
c-9.40039 -2.04004 -18.7705 -1.61035 -27.6201 0.679688v-84.0898h64zM592.16 260.92c12.5 21.9102 15.8398 33.3301 15.8398 36.6104c0 6.0498 -3.37012 11.4697 -8.80957 14.1396l-55.1904 27.1602v29.1699c0 8.83008 -7.19043 16 -16 16h-96.1797
c-17.5898 19.6602 -43.04 32 -70.8799 32c-40.2207 0 -72.9404 -32.7197 -72.9502 -72.9502c0 -30.4102 24.75 -55.1602 55.1602 -55.1602c22.5693 0 40.9092 18.3604 40.9092 40.9199c0 14.2607 -10.1494 26.1904 -23.5898 28.9502
c-0.00976562 0.00976562 0 0.0498047 -0.00976562 0.0498047c-0.0400391 0 -0.0703125 -0.00976562 -0.110352 0c-3.59961 0.75 -6.09961 4.01074 -6.09961 7.69043v16.2695c0 5.05078 4.59961 8.7002 9.58984 7.9209c1.57031 -0.240234 4.14062 -0.810547 4.25977 -0.84082
c27.2002 -6.13965 47.5605 -30.3691 47.9004 -59.3193v-1.33008c-0.339844 -39.9102 -32.8604 -72.2998 -72.8398 -72.2998c-38.7002 0 -71.1904 25.5 -82.54 60.46c-10.1201 5.17969 -22.8604 4.08008 -31.2803 -4.01074l-11.25 -10.7695l-11.0898 10.9697
c-9.94043 9.89062 -27.6504 9.54004 -37.5596 -0.689453l-10.6602 -10.9502l-11.4404 10.1396c-16.0898 14.2305 -39.2998 5.35059 -44.8398 -13.6699l-4.03027 -13.7803l-14.1602 2.52051c-21.3994 3.74023 -39.1494 -18.79 -30.5898 -40.2998l5.16016 -13.0205
l-12.2197 -6.83984c-19.9502 -11.2197 -18.9199 -40.8398 -0.310547 -51.2803l12.2207 -6.83984l-5.16016 -13.0195c-8.5498 -21.6104 9.13965 -44.1006 30.3398 -40.3008l14.25 2.56055l3.98047 -13.96c5.14941 -18.2305 27.6191 -28.7803 45.0596 -13.9502
l11.4404 9.77051l10.4395 -10.8301c9.87988 -10.1904 27.4102 -10.5605 38 -0.470703l11.2197 10.7705l11.0605 -10.9199c9.91016 -9.75 26.8496 -9.75977 37.1602 0.160156l11.0293 10.5801l11.0605 -10.5303c12.4795 -11.8506 29.4395 -8.49023 38.1201 0.450195
l10.6602 10.9492l11.4395 -10.1396c16.25 -14.3701 39.3604 -5.16016 44.8398 13.6699l4.03027 13.7803l14.1602 -2.52051c21.54 -3.73926 39.0996 18.9199 30.5898 40.3008l-5.16016 13.0195l12.2197 6.83984c19.9502 11.2197 18.9199 40.8398 0.310547 51.2803
l-12.2197 6.83984l5.15918 13.0205c1.43066 3.62988 1.89062 7.25 1.9502 10.8096h139.11c3.55957 0 6.75 1.83984 8.5 4.91992z" />
    <glyph glyph-name="ring" unicode="&#xf70b;" 
d="M256 384c168.07 0 256 -64.3896 256 -128v-114.13c0 -78.3506 -114.62 -141.87 -256 -141.87s-256 63.5195 -256 141.87v114.13c0 63.6104 87.9297 128 256 128zM480 141.87v50.1201c-39.3301 -36.6201 -114.55 -63.9902 -224 -63.9902s-184.67 27.3701 -224 63.9902
v-50.1201c0 -51.9697 91.9902 -109.87 224 -109.87s224 57.9004 224 109.87zM89.3203 192.03c41.0098 -19.6201 100.39 -32.0303 166.68 -32.0303s125.67 12.4102 166.68 32.0303c-40.9795 19.5996 -100.42 31.9697 -166.68 31.9697s-125.7 -12.3701 -166.68 -31.9697z
M454.2 211.34c16.4102 13.3398 25.7998 28.5205 25.7998 44.6602c0 53.0195 -100.29 96 -224 96s-224 -42.9805 -224 -96c0 -16.1396 9.38965 -31.3203 25.7998 -44.6602c42.9004 26.46 109.141 44.6602 198.2 44.6602s155.3 -18.2002 198.2 -44.6602z" />
    </font>
</defs>
</svg>
