<?xml version="1.0" standalone="no"?>
<!DOCTYPE svg PUBLIC "-//W3C//DTD SVG 1.1//EN" "http://www.w3.org/Graphics/SVG/1.1/DTD/svg11.dtd" >
<svg xmlns="http://www.w3.org/2000/svg" xmlns:xlink="http://www.w3.org/1999/xlink" version="1.1">
<metadata>
Created by FontForge 20201107 at Wed Aug  4 12:37:11 2021
 By Robert Madole
Copyright (c) Font Awesome
</metadata>
<!-- Font Awesome Pro 5.15.4 by @fontawesome - https://fontawesome.com License - https://fontawesome.com/license (Commercial License) --><defs>
<font id="FontAwesome5Pro-Regular" horiz-adv-x="512" >
  <font-face 
    font-family="Font Awesome 5 Pro Regular"
    font-weight="400"
    font-stretch="normal"
    units-per-em="512"
    panose-1="2 0 5 3 0 0 0 0 0 0"
    ascent="448"
    descent="-64"
    bbox="-0.259766 -64.0605 640.105 448.122"
    underline-thickness="25"
    underline-position="-50"
    unicode-range="U+0020-F8FF"
  />
    <missing-glyph />
    <glyph glyph-name="music" unicode="&#xf001;" 
d="M480.06 448c17.6338 -0.0332031 31.9404 -14.3594 31.9404 -32v-336c0 -0.219727 -0.0595703 -0.44043 -0.0595703 -0.660156c-0.0419922 -2.82617 -0.386719 -5.56934 -1 -8.21973c-5.38086 -39.9297 -45.5605 -71.1201 -94.9404 -71.1201c-53 0 -96 35.8096 -96 80
s43 80 96 80c17.1572 -0.0175781 33.5039 -4.04199 47.9697 -11.0898v129l-272 -85.9102v-176.25c-0.0263672 -2.9834 -0.393555 -5.87305 -1.05957 -8.66016c-5.35059 -39.9297 -45.5303 -71.0898 -94.9102 -71.0898c-53 0 -96 35.8096 -96 80s43 80 96 80
c17.1699 -0.00976562 33.5264 -4.03516 48 -11.0898v235.09c0.00878906 14.3018 9.41895 26.4141 22.3799 30.5l304 96c3.05176 0.969727 6.30273 1.5 9.67285 1.5h0.00683594zM96 -16c28.2803 0 48 16.8398 48 32s-19.7197 32 -48 32s-48 -16.8799 -48 -32
s19.7197 -32 48 -32zM464 80c0 15.1602 -19.7197 32 -48 32s-48 -16.8799 -48 -32s19.7197 -32 48 -32s48 16.8799 48 32zM464 328.25v65.8701l-272 -85.8701v-65.9102z" />
    <glyph glyph-name="print" unicode="&#xf02f;" 
d="M400 184c13.25 0 24 -10.7402 24 -24c0 -13.25 -10.75 -24 -24 -24s-24 10.75 -24 24c0 13.2598 10.75 24 24 24zM432 272c44.1797 0 80 -35.8203 80 -80v-128c0 -8.83984 -7.16016 -16 -16 -16h-64v-96c0 -8.83984 -7.16016 -16 -16 -16h-320
c-8.83984 0 -16 7.16016 -16 16v96h-64c-8.83984 0 -16 7.16016 -16 16v128c0 44.1797 35.8203 80 80 80v144c0 17.6699 13.6396 32 30.4805 32h221.64c12.7295 0 24.9395 -5.05957 33.9395 -14.0596l51.8809 -51.8809c9 -9 14.0596 -21.21 14.0596 -33.9395v-76.1201z
M128 400v-128h256v64h-48c-8.83984 0 -16 7.16016 -16 16v48h-192zM384 -16v64h-256v-64h256zM464 96v96c0 17.6396 -14.3604 32 -32 32h-352c-17.6396 0 -32 -14.3604 -32 -32v-96h416z" />
    <glyph glyph-name="adjust" unicode="&#xf042;" 
d="M256 392c-110.532 0 -200 -89.4512 -200 -200c0 -110.532 89.4512 -200 200 -200c110.532 0 200 89.4512 200 200c0 110.532 -89.4512 200 -200 200zM256 440c136.967 0 248 -111.033 248 -248s-111.033 -248 -248 -248s-248 111.033 -248 248s111.033 248 248 248z
M256 344v-304c-83.9473 0 -152 68.0527 -152 152s68.0527 152 152 152z" />
    <glyph glyph-name="external-link" unicode="&#xf08e;" 
d="M497.6 448c7.94824 0 14.4004 -6.45215 14.4004 -14.4004l-0.169922 -163.199c0 -7.94824 -6.45215 -14.4004 -14.4004 -14.4004h-33.3096l-0.00292969 -0.00488281c-7.94727 0 -14.4004 6.45215 -14.4004 14.3994c0 0.0986328 0.000976562 0.197266 0.00292969 0.295898
l2.7207 73.6299l-2.06055 2.05957l-278.86 -278.87c-2.17285 -2.18066 -5.18164 -3.53125 -8.50098 -3.53125s-6.3252 1.35059 -8.49902 3.53125l-23 23c-2.18066 2.17383 -3.53125 5.18262 -3.53125 8.50195s1.35059 6.3252 3.53125 8.49805l278.86 278.87
l-2.05957 2.06055l-73.6299 -2.7207c-0.0986328 -0.00195312 -0.191406 -0.00292969 -0.290039 -0.00292969c-7.94824 0 -14.4004 6.45312 -14.4004 14.4004v0.00292969v33.3096c0 7.94824 6.45215 14.4004 14.4004 14.4004zM432 160c8.83105 0 16 -7.16895 16 -16v-160
c0 -26.4922 -21.5078 -48 -48 -48h-352c-26.4922 0 -48 21.5078 -48 48v352c0 26.4922 21.5078 48 48 48h160c8.83105 0 16 -7.16895 16 -16v-16c0 -8.83105 -7.16895 -16 -16 -16h-154c-3.31152 0 -6 -2.68848 -6 -6v-340c0 -3.31152 2.68848 -6 6 -6h340
c3.31152 0 6 2.68848 6 6v154c0 8.83105 7.16895 16 16 16h16z" />
    <glyph glyph-name="trophy" unicode="&#xf091;" horiz-adv-x="576" 
d="M448 384h112c8.7998 0 16 -7.2002 16 -16v-60.7998c0 -60.4004 -68.5 -125.3 -159.6 -142.601c-27.4004 -57.8994 -68.1006 -88.0996 -104.4 -97.3994v-83.2002h64c22.0996 0 40 -17.9004 40 -40c0 -4.40039 -3.59961 -8 -8 -8h-240c-4.40039 0 -8 3.59961 -8 8
c0 22.0996 17.9004 40 40 40h64v83.2002c-36.2998 9.2002 -77 39.5 -104.4 97.3994c-91.2998 17.4004 -159.6 82.3008 -159.6 142.601v60.7998c0 8.7998 7.2002 16 16 16h112v48c0 8.7998 7.2002 16 16 16h288c8.7998 0 16 -7.2002 16 -16v-48zM48 307.2
c0 -29.1006 37.2002 -69.1006 92.2998 -88c-10.2002 40.5996 -12.2998 77.5996 -12.2998 116.8h-80v-28.7998zM288 112c51.2002 0 112 75.5 112 216v72h-224v-72c0 -137.6 59 -216 112 -216zM528 307.2v28.7998h-80c0 -39.0996 -2.09961 -76.2002 -12.2998 -116.8
c55.0996 18.8994 92.2998 58.8994 92.2998 88z" />
    <glyph glyph-name="bell" unicode="&#xf0f3;" horiz-adv-x="448" 
d="M439.39 85.71c6 -6.44043 8.66016 -14.1602 8.61035 -21.71c-0.0996094 -16.4004 -12.9805 -32 -32.0996 -32h-383.801c-19.1191 0 -31.9893 15.5996 -32.0996 32c-0.0498047 7.5498 2.61035 15.2598 8.61035 21.71c19.3193 20.7598 55.4697 51.9902 55.4697 154.29
c0 77.7002 54.4795 139.9 127.939 155.16v20.8398c0 17.6699 14.3203 32 31.9805 32s31.9805 -14.3301 31.9805 -32v-20.8398c73.46 -15.2598 127.939 -77.46 127.939 -155.16c0 -102.3 36.1504 -133.53 55.4697 -154.29zM67.5303 80h312.939
c-21.2197 27.96 -44.4199 74.3203 -44.5293 159.42c0 0.200195 0.0595703 0.379883 0.0595703 0.580078c0 61.8604 -50.1396 112 -112 112s-112 -50.1396 -112 -112c0 -0.200195 0.0595703 -0.379883 0.0595703 -0.580078
c-0.109375 -85.0898 -23.3096 -131.45 -44.5293 -159.42zM224 -64c-35.3203 0 -63.9697 28.6504 -63.9697 64h127.939c0 -35.3496 -28.6494 -64 -63.9697 -64z" />
    <glyph glyph-name="angle-left" unicode="&#xf104;" horiz-adv-x="192" 
d="M4.2002 200.5l146.8 148c4.7002 4.7002 12.2998 4.7002 17 0l19.7998 -19.7998c4.7002 -4.7002 4.7002 -12.2998 0 -17l-118.5 -119.7l118.5 -119.7c4.7002 -4.7002 4.7002 -12.2998 0 -17l-19.7998 -19.7998c-4.7002 -4.7002 -12.2998 -4.7002 -17 0l-146.8 148
c-4.7002 4.7002 -4.7002 12.2998 0 17z" />
    <glyph glyph-name="angle-right" unicode="&#xf105;" horiz-adv-x="192" 
d="M187.8 183.5l-146.8 -148c-4.7002 -4.7002 -12.2998 -4.7002 -17 0l-19.7998 19.7998c-4.7002 4.7002 -4.7002 12.2998 0 17l118.5 119.7l-118.5 119.7c-4.7002 4.7002 -4.7002 12.2998 0 17l19.7998 19.7998c4.7002 4.7002 12.2998 4.7002 17 0l146.8 -148
c4.7002 -4.7002 4.7002 -12.2998 0 -17z" />
    <glyph glyph-name="gamepad" unicode="&#xf11b;" horiz-adv-x="640" 
d="M432 208c17.6611 0 32 -14.3389 32 -32s-14.3389 -32 -32 -32s-32 14.3389 -32 32s14.3389 32 32 32zM248 232c4.41504 0 8 -3.58496 8 -8v-32c0 -4.41504 -3.58496 -8 -8 -8h-48v-48c0 -4.41504 -3.58496 -8 -8 -8h-32c-4.41504 0 -8 3.58496 -8 8v48h-48
c-4.41504 0 -8 3.58496 -8 8v32c0 4.41504 3.58496 8 8 8h48v48c0 4.41504 3.58496 8 8 8h32c4.41504 0 8 -3.58496 8 -8v-48h48zM496 272c17.6611 0 32 -14.3389 32 -32s-14.3389 -32 -32 -32s-32 14.3389 -32 32s14.3389 32 32 32zM464 384
c97.1309 -0.00683594 175.936 -78.8652 175.936 -175.998c0 -97.1367 -78.8623 -176 -176 -176c-46.7246 0 -89.2207 18.2471 -120.745 47.998h-46.3809c-31.5244 -29.751 -74.0723 -48 -120.797 -48c-97.1367 0 -176 78.8633 -176 176
c0 97.1328 78.8564 175.993 175.987 176h288zM464 80c70.6455 0 128 57.3545 128 128s-57.3545 128 -128 128h-288c-70.6455 0 -128 -57.3545 -128 -128s57.3545 -128 128 -128c56.1904 0 86.0898 33.3096 101.69 48h84.6191c16.1904 -15.3096 45.8809 -48 101.69 -48z" />
    <glyph glyph-name="anchor" unicode="&#xf13d;" horiz-adv-x="576" 
d="M571.515 116.485c7.55957 -7.55957 2.20508 -20.4854 -8.48535 -20.4854h-40.2842c-19.4072 -94.7002 -121.61 -160 -234.745 -160c-106.762 0 -214.343 60.4443 -234.745 160h-40.2842c-10.6904 0 -16.0449 12.9258 -8.48535 20.4854l67.0293 67.0283
c4.6875 4.68652 12.2852 4.68652 16.9717 0l67.0283 -67.0283c7.56055 -7.55957 2.20605 -20.4854 -8.48438 -20.4854h-44.2686c19.6621 -65.1758 92.4307 -104.304 161.238 -110.865v246.865h-60c-6.62695 0 -12 5.37305 -12 12v24c0 6.62695 5.37305 12 12 12h60v11.668
c-32.4561 10.1943 -56 40.5117 -56 76.332c0 44.1826 35.8174 80 80 80s80 -35.8174 80 -80c0 -35.8203 -23.5439 -66.1367 -56 -76.332v-11.668h60c6.62695 0 12 -5.37305 12 -12v-24c0 -6.62695 -5.37305 -12 -12 -12h-60v-246.865
c68.6934 6.5498 141.531 45.5391 161.239 110.865h-44.2686c-10.6904 0 -16.0449 12.9248 -8.48438 20.4854l67.0283 67.0283c4.6875 4.68652 12.2852 4.68652 16.9717 0zM288 400c-17.6445 0 -32 -14.3555 -32 -32s14.3555 -32 32 -32s32 14.3555 32 32s-14.3555 32 -32 32
z" />
    <glyph glyph-name="level-down" unicode="&#xf149;" horiz-adv-x="320" 
d="M316.485 56l-116 -116.485c-4.68652 -4.68555 -12.2842 -4.68555 -16.9717 0l-115.999 116.485c-4.68555 4.68555 -4.68555 12.2842 0 16.9707l22.3125 22.3125c4.80762 4.80762 12.6455 4.66504 17.2744 -0.31543l56.8984 -61.9639v358.996h-119.976
c-3.31152 0 -6.31348 1.34277 -8.48535 3.51465l-32 32c-7.56055 7.55957 -2.20605 20.4854 8.48535 20.4854h183.976c13.2549 0 24 -10.7451 24 -24v-390.996l56.8994 61.9629c4.62891 4.98047 12.4668 5.12305 17.2744 0.31543l22.3125 -22.3125
c4.68555 -4.68555 4.68555 -12.2842 -0.000976562 -16.9697z" />
    <glyph glyph-name="fax" unicode="&#xf1ac;" 
d="M288 80c8.83105 0 16 -7.16895 16 -16v-32c0 -8.83105 -7.16895 -16 -16 -16h-32c-8.83105 0 -16 7.16895 -16 16v32c0 8.83105 7.16895 16 16 16h32zM480 247.12c19.1162 -10.9697 31.9492 -31.5293 32 -55.1201v-192c0 -35.3223 -28.6777 -64 -64 -64h-256
c-15.1572 0.0615234 -29.1133 5.4707 -40 14.4102c-10.8867 -8.93945 -24.8428 -14.3486 -40 -14.4102h-48c-35.3223 0 -64 28.6777 -64 64v256c0 35.3223 28.6777 64 64 64h48c11.6533 -0.0625 22.6396 -3.32031 32 -8.87988v104.88c0 17.6611 14.3389 32 32 32h226.75
c8.83203 -0.000976562 16.8379 -3.58398 22.6299 -9.37988l45.2402 -45.2402c5.7959 -5.79199 9.37891 -13.7979 9.37988 -22.6299v-123.63zM128 0v256c0 8.83105 -7.16895 16 -16 16h-48c-8.83105 0 -16 -7.16895 -16 -16v-256c0 -8.83105 7.16895 -16 16 -16h48
c8.83105 0 16 7.16895 16 16zM192 400v-144h240v96h-32c-8.83105 0 -16 7.16895 -16 16v32h-192zM464 0v192c0 8.83105 -7.16895 16 -16 16h-272v-208c0 -8.83105 7.16895 -16 16 -16h256c8.83105 0 16 7.16895 16 16zM288 176c8.83105 0 16 -7.16895 16 -16v-32
c0 -8.83105 -7.16895 -16 -16 -16h-32c-8.83105 0 -16 7.16895 -16 16v32c0 8.83105 7.16895 16 16 16h32zM384 176c8.83105 0 16 -7.16895 16 -16v-32c0 -8.83105 -7.16895 -16 -16 -16h-32c-8.83105 0 -16 7.16895 -16 16v32c0 8.83105 7.16895 16 16 16h32zM384 80
c8.83105 0 16 -7.16895 16 -16v-32c0 -8.83105 -7.16895 -16 -16 -16h-32c-8.83105 0 -16 7.16895 -16 16v32c0 8.83105 7.16895 16 16 16h32z" />
    <glyph glyph-name="calculator" unicode="&#xf1ec;" horiz-adv-x="448" 
d="M400 448c25.5996 0 48 -22.4004 48 -48v-416c0 -25.5996 -22.4004 -48 -48 -48h-352c-25.5996 0 -48 22.4004 -48 48v416c0 25.5996 22.4004 48 48 48h352zM400 -16v256h-352v-256h352zM400 288v112h-352v-112h352zM108.8 128
c-6.39941 0 -12.7998 6.40039 -12.7998 12.7998v38.4004c0 6.39941 6.40039 12.7998 12.7998 12.7998h38.4004c6.39941 0 12.7998 -6.40039 12.7998 -12.7998v-38.4004c0 -6.39941 -6.40039 -12.7998 -12.7998 -12.7998h-38.4004zM300.8 32
c-6.39941 0 -12.7998 6.40039 -12.7998 12.7998v134.4c0 6.39941 6.40039 12.7998 12.7998 12.7998h38.4004c6.39941 0 12.7998 -6.40039 12.7998 -12.7998v-134.4c0 -6.39941 -6.40039 -12.7998 -12.7998 -12.7998h-38.4004zM108.8 32
c-6.39941 0 -12.7998 6.40039 -12.7998 12.7998v38.4004c0 6.39941 6.40039 12.7998 12.7998 12.7998h38.4004c6.39941 0 12.7998 -6.40039 12.7998 -12.7998v-38.4004c0 -6.39941 -6.40039 -12.7998 -12.7998 -12.7998h-38.4004zM204.8 128
c-6.39941 0 -12.7998 6.40039 -12.7998 12.7998v38.4004c0 6.39941 6.40039 12.7998 12.7998 12.7998h38.4004c6.39941 0 12.7998 -6.40039 12.7998 -12.7998v-38.4004c0 -6.39941 -6.40039 -12.7998 -12.7998 -12.7998h-38.4004zM204.8 32
c-6.39941 0 -12.7998 6.40039 -12.7998 12.7998v38.4004c0 6.39941 6.40039 12.7998 12.7998 12.7998h38.4004c6.39941 0 12.7998 -6.40039 12.7998 -12.7998v-38.4004c0 -6.39941 -6.40039 -12.7998 -12.7998 -12.7998h-38.4004z" />
    <glyph glyph-name="mercury" unicode="&#xf223;" horiz-adv-x="288" 
d="M288 240c0 -71.5996 -52.2002 -130.9 -120.6 -142.1c0.399414 -1.10059 0.599609 -2.40039 0.599609 -3.7002v-54.2002h44c6.59961 0 12 -5.40039 12 -12v-24c0 -6.59961 -5.40039 -12 -12 -12h-44v-44c0 -6.59961 -5.40039 -12 -12 -12h-24
c-6.59961 0 -12 5.40039 -12 12v44h-44c-6.59961 0 -12 5.40039 -12 12v24c0 6.59961 5.40039 12 12 12h44v54.2002c0 1.2998 0.200195 2.5 0.599609 3.7002c-68.3994 11.1992 -120.6 70.5 -120.6 142.1c0 50.2998 25.7998 94.5996 65 120.4
c-3.2002 2.2998 -6.2002 4.69922 -9.2002 7.19922c-21.0996 18 -34.0996 41.4004 -37.5996 66.8008c-1 7.19922 4.59961 13.5996 11.8994 13.5996h24.4004c5.7002 0 10.7002 -4 11.7002 -9.7002c5.7998 -30.7002 38.5 -54.2998 77.7998 -54.2998s72 23.5996 77.7002 54.2998
c1.09961 5.7002 6.09961 9.7002 11.7998 9.7002h24.2998c7.2998 0 12.9004 -6.40039 11.9004 -13.5996c-3.40039 -25.4004 -16.4004 -48.7002 -37.5 -66.8008c-3 -2.59961 -6 -5 -9.2002 -7.19922c39.2002 -25.8008 65 -70.1006 65 -120.4zM144 144
c52.9004 0 96 43.0996 96 96s-43.0996 96 -96 96s-96 -43.0996 -96 -96s43.0996 -96 96 -96z" />
    <glyph glyph-name="transgender-alt" unicode="&#xf225;" horiz-adv-x="480" 
d="M468 448c6.59961 0 12 -5.40039 12 -12v-63c0 -10.7002 -12.9004 -16.0996 -20.5 -8.5l-14.5 14.5l-87.5996 -87.5996c16.6992 -23.5 26.5996 -52.3008 26.5996 -83.4004c0 -71.4004 -51.9004 -130.6 -120 -142v-34h44c6.59961 0 12 -5.40039 12 -12v-24
c0 -6.59961 -5.40039 -12 -12 -12h-44v-36c0 -6.59961 -5.40039 -12 -12 -12h-24c-6.59961 0 -12 5.40039 -12 12v36h-44c-6.59961 0 -12 5.40039 -12 12v24c0 6.59961 5.40039 12 12 12h44v34c-68.0996 11.4004 -120 70.5996 -120 142
c0 31.0996 9.90039 59.9004 26.7002 83.5l-26 26l-19.5 -19.5c-4.7002 -4.7002 -12.2998 -4.7002 -17 0l-17 17c-4.7002 4.7002 -4.7002 12.2998 0 17l19.3994 19.4004l-27.5996 27.5996l-14.5 -14.5c-7.59961 -7.5 -20.5 -2.2002 -20.5 8.5v63c0 6.59961 5.40039 12 12 12
h63c10.7002 0 16.0996 -12.9004 8.5 -20.5l-14.5 -14.5l27.5996 -27.5996l19.4004 19.5c4.7002 4.69922 12.2998 4.69922 17 0l17 -17c4.7002 -4.7002 4.7002 -12.3008 0 -17l-19.4004 -19.5l26 -26c23.5 16.6992 52.3008 26.5996 83.4004 26.5996
s59.9004 -9.90039 83.4004 -26.5996l87.5996 87.5996l-14.5 14.5c-7.5 7.59961 -2.2002 20.5 8.5 20.5h63zM240 112c52.9004 0 96 43.0996 96 96s-43.0996 96 -96 96s-96 -43.0996 -96 -96s43.0996 -96 96 -96z" />
    <glyph glyph-name="mars-stroke-v" unicode="&#xf22a;" horiz-adv-x="288" 
d="M245.8 213.8c56.2998 -56.2002 56.2998 -147.399 0 -203.6c-56.2002 -56.2002 -147.399 -56.2002 -203.6 0s-56.2002 147.399 0 203.6c22 22 49.2998 35.4004 77.7998 40.2002v42.7998h-20c-6.59961 0 -12 5.40039 -12 12v24c0 6.60059 5.40039 12 12 12h20v33.1006
h-20.5996c-10.7002 0 -16.1006 12.8994 -8.5 20.5l44.5996 44.5c4.7002 4.69922 12.2998 4.69922 17 0l44.5996 -44.5c7.5 -7.60059 2.2002 -20.5 -8.5 -20.5h-20.5996v-33.2002h20c6.59961 0 12 -5.40039 12 -12v-24c0 -6.60059 -5.40039 -12 -12 -12h-20v-42.7002
c28.5 -4.7998 55.7998 -18.2002 77.7998 -40.2002zM211.9 44.0996c37.3994 37.4004 37.3994 98.4004 0 135.801c-37.5 37.3994 -98.4004 37.3994 -135.801 0c-37.3994 -37.5 -37.3994 -98.4004 0 -135.801c37.5 -37.3994 98.4004 -37.3994 135.801 0z" />
    <glyph glyph-name="mars-stroke-h" unicode="&#xf22b;" horiz-adv-x="480" 
d="M476.5 200.5c4.7002 -4.7002 4.7002 -12.2998 0 -17l-44.5996 -44.5996c-7.60059 -7.5 -20.5 -2.2002 -20.5 8.5v20.5996h-35.4004v-20c0 -6.59961 -5.40039 -12 -12 -12h-24c-6.59961 0 -12 5.40039 -12 12v20h-42c-4.7998 -28.5 -18.2002 -55.7998 -40.2002 -77.7998
c-56.2002 -56.2002 -147.399 -56.2002 -203.6 0s-56.2002 147.399 0 203.6s147.399 56.2002 203.6 0c22 -22 35.4004 -49.2998 40.2002 -77.7998h42v20c0 6.59961 5.40039 12 12 12h24c6.59961 0 12 -5.40039 12 -12v-20h35.4004v20.5996
c0 10.7002 12.8994 16.1006 20.5 8.5zM211.9 124.1c37.3994 37.4004 37.3994 98.4004 0 135.801c-37.5 37.3994 -98.4004 37.3994 -135.801 0c-37.3994 -37.5 -37.3994 -98.4004 0 -135.801c37.5 -37.3994 98.4004 -37.3994 135.801 0z" />
    <glyph glyph-name="neuter" unicode="&#xf22c;" horiz-adv-x="288" 
d="M288 272c0 -71.4004 -51.9004 -130.6 -120 -142v-150c0 -6.59961 -5.40039 -12 -12 -12h-24c-6.59961 0 -12 5.40039 -12 12v150c-68.0996 11.4004 -120 70.5996 -120 142c0 79.5 64.5 144 144 144s144 -64.5 144 -144zM144 176c52.9004 0 96 43.0996 96 96
s-43.0996 96 -96 96s-96 -43.0996 -96 -96s43.0996 -96 96 -96z" />
    <glyph glyph-name="clone" unicode="&#xf24d;" 
d="M464 448c26.5098 0 48 -21.4902 48 -48v-320c0 -26.5098 -21.4902 -48 -48 -48h-48v-48c0 -26.5098 -21.4902 -48 -48 -48h-320c-26.5098 0 -48 21.4902 -48 48v320c0 26.5098 21.4902 48 48 48h48v48c0 26.5098 21.4902 48 48 48h320zM362 -16c3.31152 0 6 2.68848 6 6
v42h-224c-26.5098 0 -48 21.4902 -48 48v224h-42c-3.31152 0 -6 -2.68848 -6 -6v-308c0 -3.31152 2.68848 -6 6 -6h308zM458 80c3.31152 0 6 2.68848 6 6v308c0 3.31152 -2.68848 6 -6 6h-308c-3.31152 0 -6 -2.68848 -6 -6v-308c0 -3.31152 2.68848 -6 6 -6h308z" />
    <glyph glyph-name="tv" unicode="&#xf26c;" horiz-adv-x="640" 
d="M592 448c26.4922 0 48 -21.5078 48 -48v-320c0 -26.4922 -21.5078 -48 -48 -48h-248v-48h184c8.83105 0 16 -7.16895 16 -16v-16c0 -8.83105 -7.16895 -16 -16 -16h-416c-8.83105 0 -16 7.16895 -16 16v16c0 8.83105 7.16895 16 16 16h184v48h-248
c-26.4922 0 -48 21.5078 -48 48v320c0 26.4922 21.5078 48 48 48h544zM592 80v320h-544v-320h544z" />
    <glyph glyph-name="blind" unicode="&#xf29d;" horiz-adv-x="384" 
d="M192.913 -62.2764c-12.3252 -4.92871 -26.2812 1.0791 -31.1963 13.3701l-50.5391 126.341l22.9766 71.8018l72.1289 -180.316c4.92285 -12.3066 -1.06348 -26.2734 -13.3701 -31.1963zM96 448c24.3008 0 44 -19.6992 44 -44s-19.6992 -44 -44 -44s-44 19.6992 -44 44
s19.6992 44 44 44zM108.53 307.397c-0.974609 -0.730469 -1.59961 -1.89648 -1.59961 -3.20605c0 -0.896484 0.295898 -1.72461 0.793945 -2.39258l20.2754 -27.1318v-118.413l-65.1406 -203.562c-4.03906 -12.6201 -17.543 -19.585 -30.1738 -15.5439
c-12.624 4.04004 -19.583 17.5488 -15.5439 30.1729l46.8584 146.427v176.64l-32 -40v-74.3877c0 -9.09277 -7.58398 -16.4141 -16.7734 -15.9824c-8.60547 0.404297 -15.2266 7.81738 -15.2266 16.4336v85.1611l67.5059 84.3828
c3.1582 3.94727 7.80371 5.99316 12.4941 5.99609v0.00878906l31.999 -0.0146484c4.86133 -0.000976562 9.66016 -2.19824 12.7998 -6.38672l120 -160c5.27246 -7.02539 3.85156 -17.1104 -3.2002 -22.3984c-6.88477 -5.16406 -16.9697 -4.03906 -22.3984 3.2002
l-105.065 140.194c-0.729492 0.975586 -1.89551 1.60156 -3.20605 1.60156c-0.899414 0 -1.73047 -0.297852 -2.39844 -0.798828zM382.837 -51.8477c0.734375 -1.20898 1.1709 -2.63086 1.1709 -4.14648c0 -2.89941 -1.5459 -5.44043 -3.85742 -6.84277
c-1.20898 -0.733398 -2.62988 -1.16992 -4.14648 -1.16992c-2.89844 0 -5.43945 1.5459 -6.84277 3.85645l-129.551 213.377c5.29199 1.77734 9.74414 5.31836 12.6699 9.95996z" />
    <glyph glyph-name="trophy-alt" unicode="&#xf2eb;" horiz-adv-x="576" 
d="M359.3 309.1c7.7998 -1.09961 10.9004 -10.6992 5.2998 -16.1992l-31.3994 -30.6006l7.39941 -43.2002c1.30078 -7.7998 -6.89941 -13.5996 -13.7998 -10l-38.7998 20.4004l-38.7998 -20.4004c-7 -3.69922 -15.1006 2.30078 -13.7998 10l7.39941 43.2002
l-31.3994 30.6006c-5.60059 5.5 -2.5 15.0996 5.2998 16.1992l43.3994 6.30078l19.4004 39.2998c3.5 7.09961 13.5 7 17 0l19.4004 -39.2998zM448 384h112c8.7998 0 16 -7.2002 16 -16v-60.7998c0 -60.4004 -68.5 -125.3 -159.6 -142.601
c-27.4004 -57.8994 -68.1006 -88.0996 -104.4 -97.3994v-83.2002h64c22.0996 0 40 -17.9004 40 -40c0 -4.40039 -3.59961 -8 -8 -8h-240c-4.40039 0 -8 3.59961 -8 8c0 22.0996 17.9004 40 40 40h64v83.2002c-36.2998 9.2002 -77 39.5 -104.4 97.3994
c-91.2998 17.4004 -159.6 82.3008 -159.6 142.601v60.7998c0 8.7998 7.2002 16 16 16h112v48c0 8.7998 7.2002 16 16 16h288c8.7998 0 16 -7.2002 16 -16v-48zM48 307.2c0 -29.1006 37.2002 -69.1006 92.2998 -88c-10.2002 40.5996 -12.2998 77.5996 -12.2998 116.8h-80
v-28.7998zM288 112c51.2002 0 112 75.5 112 216v72h-224v-72c0 -137.6 59 -216 112 -216zM528 307.2v28.7998h-80c0 -39.0996 -2.09961 -76.2002 -12.2998 -116.8c55.0996 18.8994 92.2998 58.8994 92.2998 88z" />
    <glyph glyph-name="times-hexagon" unicode="&#xf2ee;" horiz-adv-x="576" 
d="M441.5 408.2l112 -192c8.7002 -15 8.7002 -33.5 0 -48.4004l-112 -192c-8.59961 -14.7002 -24.4004 -23.7998 -41.5 -23.7998h-224c-17.0996 0 -32.9004 9.09961 -41.5 23.7998l-112 192c-8.7002 15 -8.7002 33.5 0 48.4004l112 192
c8.59961 14.7002 24.4004 23.7998 41.5 23.7998h224c17.0996 0 32.9004 -9.09961 41.5 -23.7998zM400 0l112 192l-112 192h-224l-112 -192l112 -192h224zM389.8 112.8l-22.5996 -22.5996c-4.7002 -4.7002 -12.2998 -4.7002 -17 0l-62.2002 62.2002l-62.2002 -62.2002
c-4.7002 -4.7002 -12.2998 -4.7002 -17 0l-22.5996 22.5996c-4.7002 4.7002 -4.7002 12.2998 0 17l62.2002 62.2002l-62.2002 62.2002c-4.7002 4.7002 -4.7002 12.2998 0 17l22.5996 22.5996c4.7002 4.7002 12.2998 4.7002 17 0l62.2002 -62.2002l62.2002 62.2002
c4.7002 4.7002 12.2998 4.7002 17 0l22.5996 -22.5996c4.7002 -4.7002 4.7002 -12.2998 0 -17l-62.2002 -62.2002l62.2002 -62.2002c4.7002 -4.7002 4.7002 -12.2998 0 -17z" />
    <glyph glyph-name="star-exclamation" unicode="&#xf2f3;" horiz-adv-x="576" 
d="M252.5 263.4c-0.400391 4.59961 3.2998 8.59961 8 8.59961h55.0996c4.7002 0 8.30078 -4 8 -8.59961l-6.7998 -88c-0.299805 -4.2002 -3.7998 -7.40039 -8 -7.40039h-41.5c-4.2002 0 -7.7002 3.2002 -8 7.40039zM288 152c22.0996 0 40 -17.9004 40 -40
s-17.9004 -40 -40 -40s-40 17.9004 -40 40s17.9004 40 40 40zM545.9 222l-105.801 -103l25 -145.5c4.5 -26.2002 -23.0996 -46 -46.3994 -33.7002l-130.7 68.6006l-130.7 -68.7002c-23.3994 -12.2998 -50.8994 7.59961 -46.3994 33.7002l25 145.5l-105.801 103.1
c-19 18.5 -8.5 50.7998 17.7002 54.5996l146.2 21.2002l65.2998 132.4c11.7998 23.7998 45.7002 23.7002 57.4004 0l65.2998 -132.4l146.1 -21.2002c26.2002 -3.7998 36.7002 -36.0996 17.8008 -54.5996zM489.1 233.7l-139 20.2002l-62.0996 126l-62.2002 -125.9
l-139 -20.2002l100.601 -98l-23.7002 -138.399l124.3 65.2998l124.3 -65.4004l-23.7002 138.4z" />
    <glyph glyph-name="plus-hexagon" unicode="&#xf300;" horiz-adv-x="576" 
d="M441.5 408.2l112 -192c8.7002 -15 8.7002 -33.5 0 -48.4004l-112 -192c-8.59961 -14.7002 -24.4004 -23.7998 -41.5 -23.7998h-224c-17.0996 0 -32.9004 9.09961 -41.5 23.7998l-112 192c-8.7002 15 -8.7002 33.5 0 48.4004l112 192
c8.59961 14.7002 24.4004 23.7998 41.5 23.7998h224c17.0996 0 32.9004 -9.09961 41.5 -23.7998zM400 0l112 192l-112 192h-224l-112 -192l112 -192h224zM416 208v-32c0 -6.59961 -5.40039 -12 -12 -12h-88v-88c0 -6.59961 -5.40039 -12 -12 -12h-32
c-6.59961 0 -12 5.40039 -12 12v88h-88c-6.59961 0 -12 5.40039 -12 12v32c0 6.59961 5.40039 12 12 12h88v88c0 6.59961 5.40039 12 12 12h32c6.59961 0 12 -5.40039 12 -12v-88h88c6.59961 0 12 -5.40039 12 -12z" />
    <glyph glyph-name="minus-hexagon" unicode="&#xf307;" horiz-adv-x="576" 
d="M441.5 408.2l112 -192c8.7002 -15 8.7002 -33.5 0 -48.4004l-112 -192c-8.59961 -14.7002 -24.4004 -23.7998 -41.5 -23.7998h-224c-17.0996 0 -32.9004 9.09961 -41.5 23.7998l-112 192c-8.7002 15 -8.7002 33.5 0 48.4004l112 192
c8.59961 14.7002 24.4004 23.7998 41.5 23.7998h224c17.0996 0 32.9004 -9.09961 41.5 -23.7998zM400 0l112 192l-112 192h-224l-112 -192l112 -192h224zM172 164c-6.59961 0 -12 5.40039 -12 12v32c0 6.59961 5.40039 12 12 12h232c6.59961 0 12 -5.40039 12 -12v-32
c0 -6.59961 -5.40039 -12 -12 -12h-232z" />
    <glyph glyph-name="chevron-double-left" unicode="&#xf323;" horiz-adv-x="448" 
d="M390.3 -25.9004l-209.399 209.4c-4.7002 4.7002 -4.7002 12.2998 0 17l209.399 209.4c4.7002 4.69922 12.2998 4.69922 17 0l19.7998 -19.8008c4.7002 -4.69922 4.7002 -12.2998 0 -17l-180.699 -181.1l180.699 -181.1c4.7002 -4.7002 4.7002 -12.3008 0 -17
l-19.7998 -19.8008c-4.7002 -4.69922 -12.2998 -4.69922 -17 0zM247.3 -25.9004c-4.7002 -4.69922 -12.2998 -4.69922 -17 0l-209.399 209.4c-4.7002 4.7002 -4.7002 12.2998 0 17l209.399 209.4c4.7002 4.69922 12.2998 4.69922 17 0l19.7998 -19.8008
c4.7002 -4.69922 4.7002 -12.2998 0 -17l-180.699 -181.1l180.699 -181.1c4.7002 -4.7002 4.7002 -12.3008 0 -17z" />
    <glyph glyph-name="chevron-double-right" unicode="&#xf324;" horiz-adv-x="448" 
d="M57.7002 409.9l209.399 -209.4c4.7002 -4.7002 4.7002 -12.2998 0 -17l-209.399 -209.4c-4.7002 -4.69922 -12.2998 -4.69922 -17 0l-19.7998 19.8008c-4.7002 4.69922 -4.7002 12.2998 0 17l180.699 181.1l-180.699 181.1c-4.7002 4.7002 -4.7002 12.3008 0 17
l19.7998 19.8008c4.7002 4.69922 12.2998 4.69922 17 0zM200.7 409.9c4.7002 4.69922 12.2998 4.69922 17 0l209.399 -209.4c4.7002 -4.7002 4.7002 -12.2998 0 -17l-209.399 -209.4c-4.7002 -4.69922 -12.2998 -4.69922 -17 0l-19.7998 19.8008
c-4.7002 4.69922 -4.7002 12.2998 0 17l180.699 181.1l-180.699 181.1c-4.7002 4.7002 -4.7002 12.3008 0 17z" />
    <glyph glyph-name="arrows-alt-v" unicode="&#xf338;" horiz-adv-x="256" 
d="M227.03 59.0303c10.6895 0 16.0439 -12.9268 8.4834 -20.4854l-99.0283 -99.0303c-4.6875 -4.68555 -12.2852 -4.68555 -16.9717 0l-99.0283 99.0303c-7.56055 7.55859 -2.20605 20.4854 8.48438 20.4854h71.0303v265.939h-71.0293
c-10.6904 0 -16.0449 12.9248 -8.48438 20.4854l99.0283 99.0303c4.6875 4.68555 12.2852 4.68555 16.9717 0l99.0283 -99.0303c7.56055 -7.55859 2.20605 -20.4854 -8.48438 -20.4854h-71.0303v-265.939h71.0303z" />
    <glyph glyph-name="arrow-to-bottom" unicode="&#xf33d;" horiz-adv-x="384" 
d="M348.5 215.9l-148 -148.4c-4.7002 -4.7002 -12.2998 -4.7002 -17 0l-148 148.4c-4.7002 4.69922 -4.7002 12.2998 0 17l19.5996 19.5996c4.80078 4.7998 12.5 4.7002 17.1006 -0.200195l93.7002 -97.0996v248.8c0 6.59961 5.39941 12 12 12h28
c6.59961 0 12 -5.40039 12 -12v-248.8l93.6992 97.0996c4.7002 4.7998 12.4004 4.90039 17.1006 0.200195l19.5996 -19.5996c4.90039 -4.7002 4.90039 -12.3008 0.200195 -17zM372 20c6.59961 0 12 -5.40039 12 -12v-28c0 -6.59961 -5.40039 -12 -12 -12h-360
c-6.59961 0 -12 5.40039 -12 12v28c0 6.59961 5.40039 12 12 12h360z" />
    <glyph glyph-name="external-link-alt" unicode="&#xf35d;" 
d="M432 160c8.83105 0 16 -7.16895 16 -16v-160c0 -26.4922 -21.5078 -48 -48 -48h-352c-26.4922 0 -48 21.5078 -48 48v352c0 26.4922 21.5078 48 48 48h160c8.83105 0 16 -7.16895 16 -16v-16c0 -8.83105 -7.16895 -16 -16 -16h-154c-3.31152 0 -6 -2.68848 -6 -6v-340
c0 -3.31152 2.68848 -6 6 -6h340c3.31152 0 6 2.68848 6 6v154c0 8.83105 7.16895 16 16 16h16zM500 448c6.62305 0 12 -5.37695 12 -12v-136c-0.00585938 -6.61816 -5.38281 -11.9912 -12.002 -11.9912c-3.29297 0 -6.27832 1.33008 -8.44824 3.48145l-48.21 48.2002
l-272.2 -272.21c-2.17285 -2.18164 -5.18262 -3.53125 -8.50098 -3.53125c-3.31934 0 -6.3252 1.34961 -8.49902 3.53125l-22.6299 22.6299c-2.18066 2.17285 -3.53125 5.18262 -3.53125 8.50098c0 3.31934 1.35059 6.3252 3.53125 8.49902l272.2 272.199l-48.1904 48.21
c-2.16895 2.17188 -3.50879 5.17188 -3.50879 8.48047c0 6.61914 5.37109 11.9941 11.9893 12h136z" />
    <glyph glyph-name="scanner-touchscreen" unicode="&#xf48a;" horiz-adv-x="576" 
d="M400 384c8.7998 0 16 -7.2002 16 -16v-182.7c0 -8.5 -3.40039 -16.5996 -9.40039 -22.5996l-22.5996 -22.6006v-156.1c0 -26.5 -21.5 -48 -48 -48h-256c-26.5 0 -48 21.5 -48 48v156.1l-22.5996 22.7002c-6 6 -9.40039 14.1006 -9.40039 22.6006v182.6
c0 8.7998 7.2002 16 16 16h384zM368 192v144h-320v-144l32 -32v-176h256v176zM144 32c-8.7998 0 -16 7.2002 -16 16v224c0 8.7998 7.2002 16 16 16h128c8.7998 0 16 -7.2002 16 -16v-224c0 -8.7998 -7.2002 -16 -16 -16h-128zM256 440v-24h-64v24c0 4.40039 3.59961 8 8 8
h48c4.40039 0 8 -3.59961 8 -8zM320 440v-24h-32v24c0 4.40039 3.59961 8 8 8h16c4.40039 0 8 -3.59961 8 -8zM568 448c4.40039 0 8 -3.59961 8 -8v-272c0 -4.40039 -3.59961 -8 -8 -8h-48c-4.40039 0 -8 3.59961 -8 8v272c0 4.40039 3.59961 8 8 8h48zM472 448
c4.40039 0 8 -3.59961 8 -8v-272c0 -4.40039 -3.59961 -8 -8 -8h-16c-4.40039 0 -8 3.59961 -8 8v272c0 4.40039 3.59961 8 8 8h16zM408 448c4.40039 0 8 -3.59961 8 -8v-24h-64v24c0 4.40039 3.59961 8 8 8h48z" />
    <glyph glyph-name="hand-holding-usd" unicode="&#xf4c0;" horiz-adv-x="576" 
d="M551.9 136c15.8994 -13.5 24.6992 -33.0996 24 -53.5996c-0.600586 -20.5 -10.5 -39.5 -27.1006 -52l-100.8 -75.9004c-15.9004 -12 -35.2998 -18.5 -55.2002 -18.5h-376.8c-8.7998 0 -16 7.2002 -16 16v16c0 8.7998 7.2002 16 16 16h376.5
c9.7002 0 19.0996 3.2002 26.9004 9l100.6 75.5c10.2002 7.59961 11 22.2002 0.900391 30.7002c-7.90039 6.7002 -20.1006 6.2002 -28.4004 0l-61.2998 -46.1006c-7.7002 -5.7998 -17.2002 -9 -26.9004 -9h-134.5c-7.59961 0 -13.7998 6.2002 -13.7998 13.8008v0.0996094
c0 7.59961 6.2002 13.7998 13.7998 13.7998h59.7998c30.2002 0 29 40.2002 1.10059 40.2002h-144c-18 0 -35.4004 -5.7998 -49.4004 -16.5l-41.2998 -31.5h-80c-8.7998 0 -16 7.2002 -16 16v16c0 8.7998 7.2002 16 16 16h63.7998l28.2998 21.7998
c22.2002 16.9004 50.1006 26.2998 78.5 26.2998h144c38.7002 0 69 -29.7998 69.2002 -67.7998h3.2998l60.4004 45.5c19.0996 14.2998 57.2998 24.6006 88.4004 -1.7998zM257.6 303.7c-22.2998 6.39941 -40 24.7002 -42.8994 47.7002c-4.10059 32 19 59.3994 49.2998 63
v17.5996c0 8.7998 7.2002 16 16 16h16c8.7998 0 16 -7.2002 16 -16v-17.7002c11.4004 -1.39941 22.2998 -5.2002 31.7998 -11.5c6.2002 -4.09961 6.7998 -13.0996 1.5 -18.3994l-17.5 -17.5c-3.7002 -3.7002 -9.2998 -4.2002 -14.0996 -2
c-3.2002 1.39941 -6.7002 2.19922 -10.2998 2.19922h-32.8008c-4.59961 0 -8.39941 -3.7998 -8.39941 -8.39941c0 -3.7002 2.5 -7.10059 6.09961 -8.10059l50.1006 -14.2998c22.1992 -6.39941 40 -24.7002 42.8994 -47.7002c4.10059 -32 -19 -59.3994 -49.2998 -63v-17.5996
c0 -8.7998 -7.2002 -16 -16 -16h-16c-8.7998 0 -16 7.2002 -16 16v17.7002c-11.4004 1.39941 -22.2998 5.2002 -31.7998 11.5c-6.2002 4.09961 -6.7998 13.0996 -1.5 18.3994l17.5 17.5c3.7002 3.7002 9.2998 4.2002 14.0996 2
c3.2002 -1.39941 6.7002 -2.19922 10.2998 -2.19922h32.8008c4.59961 0 8.39941 3.7998 8.39941 8.39941c0 3.7002 -2.5 7.10059 -6.09961 8.10059z" />
    <glyph glyph-name="drum" unicode="&#xf569;" 
d="M431.67 326.17c44.8105 -16.3203 80.3301 -42.7695 80.3301 -86.1699v-160c0 -61.8604 -114.62 -112 -256 -112s-256 50.1396 -256 112v160c0 106.6 213.25 112 256 112c17.5596 0 63.9404 -1 112.45 -9.5l109.8 70.8096c2.53711 1.69238 5.59082 2.7041 8.86621 2.7041
c5.55664 0 10.4551 -2.83887 13.3242 -7.14355l8.86914 -13.3105c1.69238 -2.53711 2.7041 -5.58984 2.7041 -8.86523c0 -5.55664 -2.83887 -10.4561 -7.14355 -13.3242zM88 47.79v103.21c-13.9336 4.50098 -27.46 10.4658 -40 17.5596v-88.5596
c0 -7.08008 14 -19.8799 40 -32.21zM232 17v111.47c-24.3701 0.900391 -59.9502 3.45996 -96 10.3301v-108.26c26.1904 -6.96973 58.4697 -11.9004 96 -13.54zM376 30.54v108.26c-36.0498 -6.87012 -71.6299 -9.42969 -96 -10.3301v-111.47
c37.5303 1.63965 69.8096 6.54004 96 13.54zM464 80v88.54c-12.54 -7.08789 -26.0674 -13.0449 -40 -17.54v-103.21c26 12.3301 40 25.1299 40 32.21zM256 176c114.87 0 208 28.6504 208 64c0 21.2695 -33.8701 40.0703 -85.7598 51.7002l-118.74 -76.5605
c-2.53711 -1.69141 -5.59082 -2.70312 -8.86621 -2.70312c-5.55664 0 -10.4551 2.83887 -13.3242 7.14355l-8.86914 13.3096c-1.69434 2.53809 -2.70703 5.59375 -2.70703 8.87109c0 5.55371 2.83594 10.4502 7.13672 13.3193l72.9102 47
c-15.9805 1.20996 -32.5898 1.91992 -49.7803 1.91992c-114.88 0 -208 -28.6504 -208 -64s93.1201 -64 208 -64z" />
    <glyph glyph-name="brain" unicode="&#xf5dc;" horiz-adv-x="544" 
d="M511.9 219.8c20.1992 -18.0996 32.0996 -44 32 -71.2998c0 -32.9004 -16.7002 -63 -43.7002 -80.5996c-0.5 -47.5 -38.5 -86.3008 -85.9004 -88.3008c-15.8994 -26.6992 -44.8994 -43.5996 -76.7998 -43.5996c-26 0 -49.2002 11.2002 -65.5996 28.7998
c-16.4004 -17.5996 -39.6006 -28.7998 -65.6006 -28.7998c-31.8994 0 -60.8994 16.9004 -76.7998 43.5996c-47.2998 2.10059 -85.2998 40.8008 -85.7998 88.3008c-27 17.5996 -43.7002 47.5996 -43.7002 80.5996c0 27.2998 11.9004 53.2002 32.0996 71.2002
c-1.89941 7.59961 -2.89941 15.2998 -2.89941 23c0 33 16.5996 63 43.7002 80.5996c0.399414 39.7002 29.3994 72.7998 67.5 79.7998c13.6992 27.1006 41.8994 44.9004 73.2998 44.9004c0.0351562 0 0.0800781 0.0117188 0.115234 0.0117188
c22.71 0 43.2852 -9.21777 58.1846 -24.1113c14.9004 14.8994 35.5 24.0996 58.2998 24.0996c31.5 0 59.6006 -17.7998 73.2998 -44.7998c38.1006 -7 67.1006 -40.1006 67.5 -79.7998c27 -17.6006 43.7002 -47.6006 43.7002 -80.6006c0 -7.7998 -1 -15.5 -2.89941 -23z
M247.9 25.2002l-0.100586 340.7c0 18.7998 -15.2998 34 -34.2002 34c-15.5 0 -29 -10.5 -32.8994 -25.6006l-4.7998 -18.8994l-22.9004 1.19922c-16.5996 -0.0996094 -31.9004 -15.2998 -31.9004 -34.0996c0 -4.40039 0.5 -5.2998 5.5 -27.2002l-18.8994 -7.7002
c-13.7002 -5.59961 -42.7002 -30.2998 -25.1006 -66.0996l9.90039 -20.0996l-19.5 -11.2002c-35.7998 -20.5 -31.4004 -71.4004 5.5 -86.6006l18.2002 -7.5s-4.7002 -24.5996 -4.7002 -27.3994c0 -25.2002 24.5 -44.5 48.5 -40.5l20.2998 3.39941
c6.10059 -18.0996 12.7002 -47.5996 45.6006 -47.5996c22.8994 0 41.5 18.4004 41.5 41.2002zM465.6 103.7c36.9004 15.2002 41.3008 66.0996 5.2002 86.7998l-19.5 11.2002l9.90039 20.0996c17.5996 35.7002 -11.4004 60.2998 -25.1006 65.9004l-18.8994 7.7002
c5.09961 21.8994 5.5 22.7998 5.5 27.1992c0 18.7002 -15.4004 34 -31.9004 34.1006l-22.8994 -1.2002l-4.80078 18.9004c-3.7998 15.0996 -17.3994 25.5996 -32.8994 25.5996c-18.9004 0 -34.2002 -15.2002 -34.2002 -34v-340.7c0 -22.7002 18.5996 -41.2002 41.5 -41.2002
c32.9004 0 39.5 29.4004 45.5996 47.6006l20.3008 -3.40039c24 -3.89941 48.5 15.2998 48.5 40.5c0 2.7998 -4.60059 27.4004 -4.60059 27.4004z" />
    <glyph glyph-name="directions" unicode="&#xf5eb;" 
d="M502.61 214.68c12.5195 -12.5293 12.5195 -32.8301 0 -45.3594l-223.931 -223.931c-6.25977 -6.25977 -14.4697 -9.38965 -22.6797 -9.38965s-16.4199 3.12988 -22.6797 9.38965l-223.931 223.931c-12.5195 12.5293 -12.5195 32.8301 0 45.3594l223.931 223.931
c6.25977 6.25977 14.4697 9.38965 22.6797 9.38965s16.4199 -3.12988 22.6797 -9.38965zM256 -9.40039l201.4 201.4l-201.4 201.4l-201.4 -201.4zM160 200c0 17.6699 14.3301 32 32 32h96v53.7305c0 4.7998 3.92969 8.01953 8.0498 8.01953
c1.87012 0 3.78027 -0.669922 5.37988 -2.13965l84.21 -77.7305c3.43066 -3.16992 3.43066 -8.58984 0 -11.7598l-84.21 -77.7305c-1.59961 -1.47949 -3.50977 -2.13965 -5.37988 -2.13965c-4.12012 0 -8.0498 3.21973 -8.0498 8.01953v53.7305h-80v-64
c0 -4.41992 -3.58008 -8 -8 -8h-32c-4.41992 0 -8 3.58008 -8 8v80z" />
    <glyph glyph-name="location" unicode="&#xf601;" 
d="M256 280c48.5996 0 88 -39.4004 88 -88s-39.4004 -88 -88 -88s-88 39.4004 -88 88s39.4004 88 88 88zM256 152c22.0596 0 40 17.9404 40 40s-17.9404 40 -40 40s-40 -17.9404 -40 -40s17.9404 -40 40 -40zM496 216c8.83984 0 16 -7.16016 16 -16v-16
c0 -8.83984 -7.16016 -16 -16 -16h-49.6602c-10.8496 -86.7998 -79.5303 -155.49 -166.34 -166.34v-49.6602c0 -8.83984 -7.16016 -16 -16 -16h-16c-8.83984 0 -16 7.16016 -16 16v49.6602c-86.8096 10.8496 -155.49 79.5303 -166.34 166.34h-49.6602
c-8.83984 0 -16 7.16016 -16 16v16c0 8.83984 7.16016 16 16 16h49.6602c10.8496 86.8096 79.5303 155.49 166.34 166.34v49.6602c0 8.83984 7.16016 16 16 16h16c8.83984 0 16 -7.16016 16 -16v-49.6602c86.8096 -10.8496 155.49 -79.5303 166.34 -166.34h49.6602zM256 48
c79.4004 0 144 64.5996 144 144s-64.5996 144 -144 144s-144 -64.5996 -144 -144s64.5996 -144 144 -144z" />
    <glyph glyph-name="route-interstate" unicode="&#xf61b;" horiz-adv-x="480" 
d="M464.83 392.86c37 -119.971 21.8496 -355.2 -224.83 -456.86c-246.68 101.66 -261.83 336.89 -224.83 456.87c3.07031 9.93945 11.6602 16.6699 20.9404 16.6699c1.72949 0 3.48926 -0.230469 5.23926 -0.719727c18.2305 -5.12012 37.7402 -7.95996 58.1006 -7.95996
c49.1201 0 93.6094 16.0693 126.17 42.1094c4.2002 3.35059 9.29004 5.03027 14.3799 5.03027s10.1797 -1.67969 14.3799 -5.04004c32.5605 -26.04 77.0498 -42.1104 126.17 -42.1104c20.3604 0 39.8701 2.84082 58.1006 7.95996
c1.75 0.490234 3.50977 0.720703 5.23926 0.720703c9.28027 0 17.8701 -6.7207 20.9404 -16.6699zM55.3203 356.56c-4.7207 -22.1094 -7.44043 -48.3594 -7 -76.5693h383.359c0.44043 28.2002 -2.26953 54.4502 -6.98926 76.5596
c-14.5205 -2.45996 -29.29 -3.7002 -44.1406 -3.7002c-51.3701 0 -100.55 14.5303 -140.55 41.2207c-40 -26.6904 -89.1797 -41.21 -140.54 -41.21c-14.8604 0 -29.6201 1.23926 -44.1396 3.69922zM240 -11.6104c86.54 40.2803 144.84 102.41 173.44 184.9
c6.80957 19.6396 11.2695 39.3604 14.21 58.71h-375.311c2.94043 -19.3496 7.40039 -39.0703 14.21 -58.71c28.6104 -82.4902 86.9102 -144.62 173.45 -184.9z" />
    <glyph glyph-name="calculator-alt" unicode="&#xf64c;" 
d="M477.71 448c18.9404 0 34.29 -15.3496 34.2998 -34.29v-443.42c0 -18.9404 -15.3496 -34.29 -34.29 -34.29h-443.43c-18.9404 0 -34.29 15.3496 -34.29 34.2803v443.43c0 18.9404 15.3496 34.29 34.29 34.29h443.42zM232 -16v184h-184v-184h184zM232 216v184h-184v-184
h184zM464 -16v184h-184v-184h184zM464 216v184h-184v-184h184zM104 288c-4.41992 0 -8 3.58008 -8 8v16c0 4.41992 3.58008 8 8 8h80c4.41992 0 8 -3.58008 8 -8v-16c0 -4.41992 -3.58008 -8 -8 -8h-80zM328 40c-4.41992 0 -8 3.58008 -8 8v16c0 4.41992 3.58008 8 8 8h80
c4.41992 0 8 -3.58008 8 -8v-16c0 -4.41992 -3.58008 -8 -8 -8h-80zM328 88c-4.41992 0 -8 3.58008 -8 8v16c0 4.41992 3.58008 8 8 8h80c4.41992 0 8 -3.58008 8 -8v-16c0 -4.41992 -3.58008 -8 -8 -8h-80zM328 288c-4.41992 0 -8 3.58008 -8 8v16c0 4.41992 3.58008 8 8 8
h24v24c0 4.41992 3.58008 8 8 8h16c4.41992 0 8 -3.58008 8 -8v-24h24c4.41992 0 8 -3.58008 8 -8v-16c0 -4.41992 -3.58008 -8 -8 -8h-24v-24c0 -4.41992 -3.58008 -8 -8 -8h-16c-4.41992 0 -8 3.58008 -8 8v24h-24zM104.4 51.7197
c-3.12012 3.12012 -3.12012 8.19043 0 11.3105l16.9697 16.9697l-16.96 16.9805c-3.12012 3.11914 -3.12012 8.18945 0 11.3096l11.3096 11.3096c3.12012 3.12012 8.19043 3.12012 11.3105 0l16.9697 -16.9697l16.9805 16.96c3.11914 3.12012 8.18945 3.12012 11.3096 0
l11.3096 -11.3096c3.12012 -3.12012 3.12012 -8.19043 0 -11.3105l-16.9697 -16.9697l16.96 -16.9805c3.12012 -3.11914 3.12012 -8.18945 0 -11.3096l-11.3096 -11.3096c-3.12012 -3.12012 -8.19043 -3.12012 -11.3105 0l-16.9697 16.9697l-16.9805 -16.96
c-3.11914 -3.12012 -8.18945 -3.12012 -11.3096 0z" />
    <glyph glyph-name="gopuram" unicode="&#xf664;" 
d="M496 96c8.83984 0 16 -7.16016 16 -16v-128c0 -8.83984 -7.16016 -16 -16 -16h-16c-8.83984 0 -16 7.16016 -16 16v96h-48v-104c0 -4.41992 -3.58008 -8 -8 -8h-16c-4.41992 0 -8 3.58008 -8 8v104h-256v-104c0 -4.41992 -3.58008 -8 -8 -8h-16
c-4.41992 0 -8 3.58008 -8 8v104h-48v-96c0 -8.83984 -7.16016 -16 -16 -16h-16c-8.83984 0 -16 7.16016 -16 16v128c0 8.83984 7.16016 16 16 16h16v112c0 8.83984 7.16016 16 16 16h16v80c0 8.83984 7.16016 16 16 16h16v104c0 13.2598 10.75 24 24 24s24 -10.7402 24 -24
v-8h48v8c0 13.2598 10.75 24 24 24s24 -10.7402 24 -24v-8h32v8c0 13.2598 10.75 24 24 24s24 -10.7402 24 -24v-8h48v8c0 13.2598 10.75 24 24 24s24 -10.7402 24 -24v-104h16c8.83984 0 16 -7.16016 16 -16v-80h16c8.83984 0 16 -7.16016 16 -16v-112h16zM144 368v-48h224
v48h-224zM264 248c8.83984 0 16 -7.16016 16 -16v-8h40v48h-128v-48h40v8c0 8.83984 7.16016 16 16 16h16zM112 272v-48h48v48h-48zM128 96v80h-48v-80h48zM352 96v80h-192v-80h64v32c0 8.83984 7.16016 16 16 16h32c8.83984 0 16 -7.16016 16 -16v-32h64zM352 224h48v48
h-48v-48zM432 96v80h-48v-80h48zM288 16c8.83984 0 16 -7.16016 16 -16v-64h-96v64c0 8.83984 7.16016 16 16 16h64z" />
    <glyph glyph-name="journal-whills" unicode="&#xf66a;" horiz-adv-x="448" 
d="M435.094 48.2969c-4.1875 -13 -4.1875 -51.5938 0 -64.5938c7.34668 -1.4502 12.9062 -7.93359 12.9062 -15.7031v-16c-0.0332031 -8.81543 -7.18457 -15.9668 -16 -16h-352h-0.0371094c-44.1328 0 -79.9639 35.8311 -79.9639 79.9639
c0 0.0126953 0.000976562 0.0234375 0.000976562 0.0361328v352v0.0371094c0 44.1328 35.8311 79.9639 79.9639 79.9639c0.0126953 0 0.0234375 -0.000976562 0.0361328 -0.000976562h352c8.81543 -0.0332031 15.9668 -7.18457 16 -16v-368v-0.0126953
c0 -7.7666 -5.56055 -14.2461 -12.9062 -15.6904zM400 400h-320h-0.0488281c-17.6348 0 -31.9521 -14.3174 -31.9521 -31.9521c0 -0.015625 0.000976562 -0.03125 0.000976562 -0.0478516v-278.703c9.75195 4.28516 20.5283 6.66406 31.8555 6.66406
c0.0283203 0 0.116211 0.0390625 0.144531 0.0390625h320v304zM394 48h-314c-17.6611 0 -32 -14.3389 -32 -32s14.3389 -32 32 -32h314c-2.71875 17.2969 -2.71875 46.7031 0 64zM116.125 246.531c0 0.34375 -0.125 0.6875 -0.125 1.04688
c0.0292969 11.0908 1.66602 21.8037 4.65625 31.9375l17.6875 -17.6875c1.44727 -1.44434 3.44434 -2.33789 5.64941 -2.33789c4.41406 0 7.99902 3.58398 7.99902 7.99902c0 2.2041 -0.891602 4.2041 -2.33594 5.65137l-22.7188 22.7031
c11.2207 23.8389 29.7275 43.29 52.875 55.6875c0.566406 0.304688 1.21387 0.477539 1.90039 0.477539c1.16016 0 2.20898 -0.488281 2.94336 -1.27441c0.65625 -0.72168 1.05566 -1.68066 1.05566 -2.73242c0 -0.790039 -0.227539 -1.53418 -0.618164 -2.1582
c-6.01562 -9.28125 -9.57617 -20.3945 -9.65625 -32.25c0 -14.2812 5.1875 -27.7969 15 -39.1094c0.606445 -0.703125 0.972656 -1.61914 0.972656 -2.62012c0 -0.853516 -0.267578 -1.65039 -0.722656 -2.30176c-6.71582 -9.6748 -10.6533 -21.4219 -10.6533 -34.0811
c0 -28.7432 20.3076 -52.8389 47.3408 -58.6064h0.625v27.8125l-6.34375 -6.34375c-1.44727 -1.44434 -3.44434 -2.33789 -5.64941 -2.33789c-4.41406 0 -7.99902 3.58398 -7.99902 7.99902c0 2.2041 0.891602 4.2041 2.33594 5.65137l10.3438 10.3438h-12.6875
c-4.41504 0 -8 3.58496 -8 8s3.58496 8 8 8h12.6875l-10.3438 10.3438c-1.44434 1.44727 -2.33789 3.44434 -2.33789 5.64941c0 4.41406 3.58398 7.99902 7.99902 7.99902c2.2041 0 4.2041 -0.891602 5.65137 -2.33594l6.34375 -6.34375v96.6875c0 6.62305 5.37695 12 12 12
s12 -5.37695 12 -12v-96.6875l6.34375 6.34375c1.44727 1.44434 3.44434 2.33789 5.64941 2.33789c4.41406 0 7.99902 -3.58398 7.99902 -7.99902c0 -2.2041 -0.891602 -4.2041 -2.33594 -5.65137l-10.3438 -10.3438h12.6875c4.41504 0 8 -3.58496 8 -8s-3.58496 -8 -8 -8
h-12.6875l10.3438 -10.3594c1.45117 -1.44824 2.34961 -3.45117 2.34961 -5.66113c0 -4.41504 -3.58398 -7.99902 -7.99902 -7.99902c-2.20996 0 -4.21484 0.896484 -5.66309 2.34766l-6.34375 6.34375v-27.8281h0.65625c27.0186 5.78711 47.3027 29.8232 47.3027 58.5596
c0 12.6611 -3.93066 24.4658 -10.6465 34.1436c-0.455078 0.648438 -0.72168 1.4375 -0.72168 2.28906c0 0.998047 0.365234 1.91699 0.97168 2.61719c9.8125 11.3125 15 24.8438 15 39.125c-0.0800781 11.8555 -3.64062 22.9688 -9.65625 32.25
c-0.365234 0.638672 -0.589844 1.37695 -0.625 2.15625c0.0517578 1.0293 0.443359 1.97559 1.0625 2.71875c0.728516 0.797852 1.77637 1.29883 2.94043 1.29883c0.6875 0 1.33887 -0.178711 1.90332 -0.486328c23.1377 -12.4111 41.6406 -31.8574 52.875 -55.6875
l-22.7188 -22.7031c-1.44434 -1.44727 -2.33789 -3.44434 -2.33789 -5.64941c0 -4.41406 3.58398 -7.99902 7.99902 -7.99902c2.2041 0 4.2041 0.891602 5.65137 2.33594l17.6875 17.6875c3.00391 -10.1289 4.64258 -20.8428 4.65625 -31.9375
c0 -0.359375 -0.125 -0.6875 -0.125 -1.04688l-33.1562 -29.0312c-1.57617 -1.5459 -2.5918 -3.66699 -2.71875 -6.01562c0.0966797 -1.97656 0.819336 -3.80469 1.96875 -5.26562c1.47363 -1.67383 3.63184 -2.73047 6.03516 -2.73047
c2.01758 0 3.86523 0.750977 5.27734 1.98047l20.0312 17.5312c-11.8125 -54.1719 -61.6875 -94.9844 -121.312 -94.9844s-109.531 40.8125 -121.312 94.9688l20.0312 -17.5156c1.41211 -1.24707 3.2666 -2.00488 5.2959 -2.00488
c4.41797 0 8.00488 3.58691 8.00488 8.00586c0 2.40527 -1.05566 4.5625 -2.73828 6.03027z" />
    <glyph glyph-name="shredder" unicode="&#xf68a;" 
d="M432 272c44.1797 0 80 -35.8203 80 -80v-128c0 -8.83984 -7.16016 -16 -16 -16h-24v-96c0 -8.83984 -7.16016 -16 -16 -16h-16c-8.83984 0 -16 7.16016 -16 16v96h-48v-96c0 -8.83984 -7.16016 -16 -16 -16h-16c-8.83984 0 -16 7.16016 -16 16v96h-48v-96
c0 -8.83984 -7.16016 -16 -16 -16h-16c-8.83984 0 -16 7.16016 -16 16v96h-48v-96c0 -8.83984 -7.16016 -16 -16 -16h-16c-8.83984 0 -16 7.16016 -16 16v96h-48v-96c0 -8.83984 -7.16016 -16 -16 -16h-16c-8.83984 0 -16 7.16016 -16 16v96h-24
c-8.83984 0 -16 7.16016 -16 16v128c0 44.1797 35.8203 80 80 80v144c0 17.6699 13.6396 32 30.4805 32h221.64c12.7295 0 24.9395 -5.05957 33.9395 -14.0596l51.8809 -51.8809c9 -9 14.0596 -21.21 14.0596 -33.9395v-76.1201zM128 400v-128h256v64h-48
c-8.83984 0 -16 7.16016 -16 16v48h-192zM464 96v96c0 17.6396 -14.3604 32 -32 32h-352c-17.6396 0 -32 -14.3604 -32 -32v-96h416zM400 184c13.25 0 24 -10.7402 24 -24c0 -13.25 -10.75 -24 -24 -24s-24 10.75 -24 24c0 13.2598 10.75 24 24 24z" />
    <glyph glyph-name="chair" unicode="&#xf6c0;" horiz-adv-x="448" 
d="M445.13 121.73c5.69043 -17.0605 2.81055 -35.9209 -7.67969 -50.4707c-5.57031 -7.72949 -13.0205 -13.6494 -21.4102 -17.6494l-0.0400391 -101.61c0 -8.83984 -7.16016 -16 -16 -16h-16c-8.83984 0 -16 7.16016 -16 16l0.0400391 96h-288.04v-96
c0 -8.83984 -7.16016 -16 -16 -16h-16c-8.83984 0 -16 7.16016 -16 16l-0.0195312 101.61c-8.39062 4 -15.8408 9.91992 -21.4102 17.6494c-10.5 14.5498 -13.3799 33.4102 -7.7207 50.4404l10.71 32.0303c7.30078 21.9893 27.4102 36.71 50.4102 37.8398l0.0302734 128.43
c0 70.6904 57.3096 128 128 128h64c70.6904 0 128 -57.3096 128 -128l0.0302734 -128.43c23 -1.12988 43.1094 -15.8506 50.4395 -37.8701zM296 388.87v-196.87h40v128c0 29.4805 -16.2002 54.9902 -40 68.8701zM200 400v-208h48v208h-48zM152 388.87
c-23.7998 -13.8799 -40 -39.3896 -40 -68.8701v-128h40v196.87zM48.3799 106.52c-1.70996 -5.23926 2.2002 -10.5195 7.62012 -10.5195h336.01c5.35059 0 9.36035 5.21973 7.58984 10.5498l-10.6592 31.9697c-1.09082 3.29004 -4.15039 5.48047 -7.59082 5.48047h-314.689
c-3.44043 0 -6.5 -2.17969 -7.56055 -5.4502z" />
    <glyph glyph-name="chair-office" unicode="&#xf6c1;" horiz-adv-x="448" 
d="M64 224c0 -17.6699 -14.3301 -32 -32 -32s-32 14.3301 -32 32v64c0 17.6699 14.3301 32 32 32s32 -14.3301 32 -32v-64zM416 320c17.6699 0 32 -14.3301 32 -32v-64c0 -17.6699 -14.3301 -32 -32 -32s-32 14.3301 -32 32v64c0 17.6699 14.3301 32 32 32zM402.47 153.7
l10.6699 -31.96c5.69043 -17.0605 2.81055 -35.9199 -7.68945 -50.4707c-10.5098 -14.5791 -27.4805 -23.2695 -45.4502 -23.2695h-112v-50.0098c31.9297 -4.9707 57.9902 -19.4307 69.8496 -38.5605c6.41992 -10.3398 -2.40918 -23.4297 -15.0195 -23.4297h-157.66
c-12.6104 0 -21.4297 13.0898 -15.0195 23.4297c11.8594 19.1299 37.9199 33.5898 69.8496 38.5605v50.0098h-111.99c-17.9697 0 -34.9395 8.69043 -45.4395 23.2598c-10.5 14.5498 -13.3799 33.4102 -7.7207 50.4404l10.7207 32.04
c7.2998 22 27.4199 36.7197 50.4297 37.8398v192.42c0 35.3496 28.6504 64 64 64h128c35.3496 0 64 -28.6504 64 -64v-192.42c23.0098 -1.12988 43.1299 -15.8496 50.4697 -37.8799zM144 384v-192h160v192c0 8.82031 -7.17969 16 -16 16h-128
c-8.82031 0 -16 -7.17969 -16 -16zM360 96c5.33984 0 9.37012 5.2002 7.59961 10.5498l-10.6592 31.9697c-1.10059 3.29004 -4.16016 5.48047 -7.60059 5.48047h-250.67c-3.43945 0 -6.5 -2.17969 -7.55957 -5.4502l-10.7207 -32.0303
c-1.70996 -5.23926 2.2002 -10.5195 7.62012 -10.5195h271.99z" />
    <glyph glyph-name="flame" unicode="&#xf6df;" horiz-adv-x="384" 
d="M192 448c111.78 -100.86 192 -220.6 192 -300.55c0 -124.5 -78.9502 -211.45 -192 -211.45s-192 86.9502 -192 211.45c0 79.6299 79.7002 199.22 192 300.55zM192 -16c86.1299 0 144 65.6904 144 163.45c0 55.7295 -57.79 148.58 -144.04 234.47
c-98.6504 -97.8496 -143.96 -188.2 -143.96 -234.47c0 -97.7598 57.8701 -163.45 144 -163.45zM237.07 208.32c25.04 -21.4004 50.9297 -43.5303 50.9297 -87.9004c0 -48.75 -43.0596 -88.4199 -96 -88.4199s-96 39.6699 -96 88.4199
c0 33.0996 19.3799 53.6299 25.7598 59.8203c1.08594 1.08398 2.58594 1.75391 4.24023 1.75391c3.30957 0 5.99707 -2.68555 6 -5.99414v-30c0 -23.2002 18.8096 -42 42 -42c23.2002 0 42 18.7998 42 42c0 54 -84.4805 48.5801 -29.5801 123.24
c2.16992 2.9502 5.62012 3.12012 7.94043 2.37988c1.21973 -0.389648 4.04004 -1.67969 4.04004 -5.08008c0 -25.1602 18.7793 -41.2197 38.6699 -58.2197z" />
    <glyph glyph-name="flask-poison" unicode="&#xf6e0;" horiz-adv-x="416" 
d="M304 278.95c67.1904 -36.1299 113.71 -107.67 111.96 -187.62c-1.13965 -51.6904 -21.1504 -98.7002 -53.3896 -134.48c-12.0898 -13.4092 -29.5205 -20.8496 -47.5801 -20.8496h-214.05c-17.7803 0 -35.0508 7.12988 -47 20.2998
c-33.5107 36.9102 -53.9404 85.9102 -53.9404 139.7c0 80.1201 45.6104 149.15 112 183.88v120.12h-16c-8.83984 0 -16 7.16016 -16 16v16c0 8.83984 7.16016 16 16 16h224c8.83984 0 16 -7.16016 16 -16v-16c0 -8.83984 -7.16016 -16 -16 -16h-16v-121.05zM326.91 -11.0098
c25.6299 28.4395 40.21 65.1602 41.0596 103.39c1.29004 58.6396 -32.7393 115.271 -86.7002 144.29l-25.2695 13.5898v149.74h-96v-149.17l-25.75 -13.4805c-53.2002 -27.8301 -86.25 -81.9893 -86.25 -141.35c0 -39.8096 14.7305 -77.9697 41.4902 -107.44
c2.58984 -2.84961 6.87012 -4.55957 11.4502 -4.55957h214.05c4.64941 0 9.10938 1.87012 11.9199 4.99023zM208 192c49.0996 0 88.8896 -31.8398 88.8799 -71.1104c0 -23.1895 -14.0801 -43.5898 -35.5498 -56.5693v-14.54c0 -9.82031 -7.95996 -17.7803 -17.7803 -17.7803
h-71.1094c-9.82031 0 -17.7803 7.95996 -17.7803 17.7803v14.54c-21.46 12.9795 -35.5498 33.3799 -35.5498 56.5693c0 39.2705 39.7998 71.1104 88.8896 71.1104zM172.45 103.11c9.80957 0 17.7695 7.95996 17.7803 17.7793c0 9.82031 -7.96094 17.7803 -17.7803 17.7803
c-9.82031 0 -17.7803 -7.95996 -17.7803 -17.7803c0 -9.81934 7.95996 -17.7793 17.7803 -17.7793zM243.56 103.11c9.81055 0 17.7803 7.95996 17.7803 17.7793c0 9.82031 -7.95996 17.7803 -17.7803 17.7803c-9.81934 0 -17.7793 -7.95996 -17.7793 -17.7803
c0 -9.81934 7.95996 -17.7793 17.7793 -17.7793z" />
    <glyph glyph-name="flask-potion" unicode="&#xf6e1;" horiz-adv-x="416" 
d="M304 278.95c67.1904 -36.1299 113.71 -107.67 111.96 -187.62c-1.13965 -51.6904 -21.1504 -98.7002 -53.3896 -134.48c-12.0898 -13.4092 -29.5205 -20.8496 -47.5801 -20.8496h-214.05c-17.7803 0 -35.0508 7.12988 -47 20.2998
c-33.5107 36.9102 -53.9404 85.9102 -53.9404 139.7c0 80.1201 45.6104 149.15 112 183.88v120.12h-16c-8.83984 0 -16 7.16016 -16 16v16c0 8.83984 7.16016 16 16 16h224c8.83984 0 16 -7.16016 16 -16v-16c0 -8.83984 -7.16016 -16 -16 -16h-16v-121.05zM160 250.83
c-17.3398 -9.08008 -87.5898 -35.3105 -107.37 -118.09l9.92969 4.83984c61 29.75 133.881 29.75 194.881 0c23.5898 -11.5 50.0596 -17.5801 76.4697 -17.5801h31.7598c-14.9102 89.6699 -92.8604 121.22 -109.67 130.26v149.74h-96v-149.17zM326.91 -11.0098
c21.0098 23.3096 34.0898 52.29 38.7695 83.0098h-31.7695c-33.6602 0 -67.3799 7.75 -97.4697 22.4199c-47.8701 23.3398 -105.03 23.3398 -152.841 0l-33.9199 -16.5098c3.77051 -33.1201 17.1699 -64.4102 39.8105 -89.3506
c2.58984 -2.84961 6.87012 -4.55957 11.4502 -4.55957h214.05c4.64941 0 9.10938 1.87012 11.9199 4.99023z" />
    <glyph glyph-name="hat-wizard" unicode="&#xf6e8;" 
d="M496 -16c8.83984 0 16 -7.16016 16 -16v-16c0 -8.83984 -7.16016 -16 -16 -16h-480c-8.83984 0 -16 7.16016 -16 16v16c0 8.83984 7.16016 16 16 16h36.2197l109.24 259.28c12.9102 30.6494 34.7598 56.1602 62.3701 72.7998l218.84 131.92l-65.7002 -207.89
c-5.7793 -18.3008 -5 -38.21 2.20996 -55.9404l81.3203 -200.17h35.5zM240 -16h168.69l-63.6006 156.55l-25.0898 -12.5498l-16 -32l-16 32l-32 16l32 16l16 32l16 -32l21.5801 -10.79l-6.86035 16.8896c-11.4199 28.0908 -12.6602 59.5107 -3.50977 88.4707l27.4004 86.71
l-110 -66.3105c-0.540039 -0.319336 -1.01074 -0.769531 -1.54004 -1.10938l8.92969 -17.8604l32 -16l-32 -16l-16 -32l-16 32l-14.8203 7.41016c-1.14941 -2.27051 -2.5 -4.41016 -3.48926 -6.77051l-101.381 -240.64h103.69l-10.6699 21.3301l-53.3301 26.6699
l53.3301 26.6699l26.6699 53.3301l26.6699 -53.3301l53.3301 -26.6699l-53.3301 -26.6699z" />
    <glyph glyph-name="mandolin" unicode="&#xf6f9;" 
d="M507.31 397.33c2.89258 -2.89551 4.66992 -6.91211 4.66992 -11.3242c0 -3.1123 -0.889648 -6.01758 -2.42969 -8.47559l-40.0693 -64c-4.28809 -6.84863 -11.0869 -11.9248 -19.1104 -14l-71.3701 -18.46l-59.3096 -59.2402c3.8291 -193.96 -48.4102 -239.5 -64 -255.09
c-20.5801 -20.6201 -52.1904 -30.7402 -86 -30.7402c-42.96 0 -89.4707 16.3496 -121.421 48.2695c-57.0498 57.0908 -64.3398 160.66 -17.5293 207.44c18.8896 18.8896 65.9502 67.6699 255.1 64.0596l59.2305 59.2305l18.4297 71.4004
c2.0752 8.02344 7.15137 14.8223 14 19.1094l64 40.0703c2.45801 1.53906 5.38281 2.44238 8.49512 2.44238c4.41699 0 8.41797 -1.79395 11.3145 -4.69238zM221.77 0.669922c48.4902 48.1602 49.1309 157.82 49.6309 172.8l-49.1807 -49.1895
c1.16016 -4.16797 1.77539 -8.55566 1.77539 -13.0908c0 -26.9385 -21.8711 -48.8096 -48.8105 -48.8096c-26.9385 0 -48.8096 21.8711 -48.8096 48.8096c0 26.9395 21.8711 48.8105 48.8096 48.8105c4.53613 0 8.92773 -0.620117 13.0957 -1.78027l49.1602 49.1602
c-16.2607 -0.599609 -124.891 -1.29004 -172.761 -49.5996c-26.0801 -26.0703 -22.1699 -99.8398 17.5508 -139.57c21.0996 -21.0996 54.6191 -34.21 87.46 -34.21c22.1699 0 41.6494 6.23047 52.0791 16.6699z" />
    <glyph glyph-name="running" unicode="&#xf70c;" horiz-adv-x="416" 
d="M126.16 131.14c7.07031 -10.96 16.4102 -20.6494 28.29 -27.8301l9.55957 -5.76953l-13.5498 -31.5996c-8.84961 -20.6309 -29.0703 -33.9404 -51.5 -33.9404h-74.9502c-13.25 0 -24.0098 10.75 -24.0098 24s10.7598 24 24.0098 24h74.9502
c3.20996 0 6.08008 1.91016 7.34961 4.86035zM272.15 352c-26.5205 0 -48.0303 21.4902 -48.0303 48s21.5 48 48.0303 48c26.5293 0 48.0293 -21.4902 48.0293 -48s-21.5098 -48 -48.0293 -48zM392.06 207.44c13.2803 -0.0507812 23.9902 -10.8301 23.9404 -24.0908
c-0.0400391 -13.2295 -10.7803 -23.9199 -24.0098 -23.9199h-0.0800781l-48.4004 0.169922c-24.7402 0.0800781 -46.2002 16.0303 -53.4102 39.6904l-13.96 45.9404c-1.35938 4.47949 -3.69922 8.42969 -6.41992 12.0693l-41.9395 -104.8l51.8496 -31.2998
c21.5898 -13.0498 31.8301 -39.0801 24.9004 -63.3301l-33.2998 -104.47c-3.02051 -10.5508 -12.6406 -17.4102 -23.0801 -17.4102c-2.19043 0 -4.41016 0.299805 -6.61035 0.919922c-12.75 3.63965 -20.1299 16.9199 -16.4902 29.6699l33.2998 104.47
c0.201172 0.700195 0.318359 1.43359 0.318359 2.19824c0 2.9043 -1.55078 5.44922 -3.86816 6.85156l-83.7803 50.5801c-23.6699 14.3203 -33.3291 43.29 -22.9795 68.9102l35.2998 87.3506l-14.8799 3.36914c-11.6201 2.54004 -23.8398 -0.0498047 -33.2998 -7.37988
l-48.3906 -37.3594c-10.4492 -8.10059 -25.5996 -6.19043 -33.6797 4.30957c-8.12012 10.4902 -6.17969 25.5703 4.31055 33.6602l48.3691 37.3604c20.8105 16.1396 47.5303 22.0801 73.2607 16.2197l78.25 -17.7002c30.7998 -6.95996 55.6299 -30.04 64.8193 -60.2295
l13.9502 -45.9209c1.00977 -3.35938 4.08008 -5.63965 7.61035 -5.65918z" />
    <glyph glyph-name="guitar" unicode="&#xf7a6;" 
d="M502.63 409c5.75 -5.78613 9.30469 -13.7656 9.30469 -22.5596c0 -8.81445 -3.57129 -16.8008 -9.34473 -22.5908l-46.3203 -46.3193c-3.8291 -3.83398 -8.53418 -6.77734 -13.7891 -8.53027l-53.4404 -17.8096l-35.9404 -36
c12.8408 -15.4502 22.9502 -33.0801 27.4707 -52.6201c8.42969 -36.4404 0.939453 -72.9199 -24 -97.9199c-10.1113 -10.0479 -22.5957 -17.6914 -36.5205 -22.0801c-20.2295 -6.58008 -35.6494 -25.4307 -37.5693 -46c-2.46094 -25.9707 -12.4805 -49.9902 -31 -68.4004
c-21.6201 -21.6396 -50.8105 -32.1699 -81.8105 -32.1699c-40.2197 0 -83.5898 17.7002 -117.77 51.8799c-60.5107 60.54 -69.4707 149.94 -19.6904 199.59c18.4102 18.5303 42.4404 28.5303 68.2705 31.0205c20.6895 1.93945 39.4297 17.3594 46 37.5996
c4.375 13.9268 12.0166 26.4092 22.0693 36.5098c18.4502 18.4004 43.2002 27.4004 69.5703 27.4004c9.81836 -0.0410156 19.3154 -1.2207 28.4795 -3.40039c19.5303 -4.54004 37.1504 -14.6895 52.5908 -27.54l36 36l17.8096 53.4502
c1.73438 5.25293 4.66113 9.95898 8.48047 13.79l46.3096 46.3301c5.79297 5.79395 13.8027 9.37988 22.6348 9.37988s16.833 -3.58594 22.625 -9.37988zM305.26 128.21c35.7998 11.5703 40.2305 58.2305 13.7402 92.79l-64.7998 -64.8096
c1.14551 -4.14453 1.75293 -8.50488 1.75293 -13.0117c0 -26.9336 -21.8662 -48.7998 -48.7998 -48.7998s-48.7998 21.8662 -48.7998 48.7998s21.8662 48.7998 48.7998 48.7998c4.54688 0 8.94922 -0.623047 13.127 -1.78809l64.7197 64.7197
c-36.7002 28.2598 -82 20.2002 -92.8203 -13.54c-12.5098 -38.6006 -47.54 -66.96 -87.1797 -70.6797c-50 -4.77051 -57 -48.1602 -57 -64.9404c0 -29.2598 13.8301 -59.9004 37.8496 -83.9297c24.0205 -24.0303 54.5801 -37.8105 83.8203 -37.8105
c16.8701 0 60.2402 6.82031 65.0703 57.1406c3.67969 39.5293 32.0293 74.5693 70.5195 87.0596z" />
    <glyph glyph-name="print-search" unicode="&#xf81a;" horiz-adv-x="640" 
d="M128 -16h219.13c24.3438 -17.1504 53.5918 -28.3486 84.8701 -31.1904v-0.80957c0 -8.83105 -7.16895 -16 -16 -16h-320c-8.83105 0 -16 7.16895 -16 16v96h-64c-8.83105 0 -16 7.16895 -16 16v128c0 44.1533 35.8467 80 80 80v144c0 17.6699 13.6396 32 30.4805 32
h221.64c13.2451 -0.000976562 25.252 -5.37109 33.9395 -14.0596l51.8809 -51.8809c8.68848 -8.6875 14.0586 -20.6943 14.0596 -33.9395v-44.9297c-16.7002 -1.53516 -32.9912 -5.5 -48 -11.4102v44.2197h-48c-8.83105 0 -16 7.16895 -16 16v48h-192v-128h219.13
c-18.4678 -12.9707 -34.0771 -29.0938 -46.4502 -48h-220.68c-17.6611 0 -32 -14.3389 -32 -32v-96h227.06c3.12012 -16.8643 8.77246 -33.2061 16.3701 -48h-163.43v-64zM635.31 -25.3799c2.89453 -2.89551 4.68555 -6.89941 4.68555 -11.3125
s-1.79102 -8.41211 -4.68555 -11.3076l-11.3096 -11.3096c-2.89551 -2.89453 -6.89844 -4.68555 -11.3125 -4.68555c-4.41309 0 -8.41211 1.79102 -11.3076 4.68555l-81.4697 81.46c-20.502 -13.9316 -45.4502 -22.2773 -72.083 -22.2773
c-70.7109 0 -128.12 57.4082 -128.12 128.12c0 70.7109 57.4092 128.12 128.12 128.12s128.12 -57.4092 128.12 -128.12c0 -26.6475 -8.15234 -51.4053 -22.0977 -71.9131zM448 48c44.1533 0 80 35.8467 80 80s-35.8467 80 -80 80s-80 -35.8467 -80 -80s35.8467 -80 80 -80z
" />
    <glyph glyph-name="album" unicode="&#xf89f;" horiz-adv-x="448" 
d="M416 416c17.6611 0 32 -14.3389 32 -32v-384c0 -17.6611 -14.3389 -32 -32 -32h-384c-17.6611 0 -32 14.3389 -32 32v384c0 17.6611 14.3389 32 32 32h384zM400 16v352h-352v-352h352zM224 48c-79.4756 0 -144 64.5244 -144 144s64.5244 144 144 144
s144 -64.5244 144 -144s-64.5244 -144 -144 -144zM224 216c-13.2461 0 -24 -10.7539 -24 -24s10.7539 -24 24 -24s24 10.7539 24 24s-10.7539 24 -24 24z" />
    <glyph glyph-name="album-collection" unicode="&#xf8a0;" 
d="M496 344v-24h-480v24c0 13.2461 10.7539 24 24 24h432c13.2461 0 24 -10.7539 24 -24zM480 424v-24h-448v24c0 13.2461 10.7539 24 24 24h400c13.2461 0 24 -10.7539 24 -24zM480 288c17.6611 0 32.0029 -14.3066 32.0029 -31.9688
c0 -0.988281 -0.0449219 -1.96582 -0.132812 -2.93164l-26.1904 -288c-1.48145 -16.2861 -15.1904 -29.0957 -31.8594 -29.0996h-395.641c-16.6689 0.00390625 -30.3779 12.8135 -31.8594 29.0996l-26.1904 288c-0.0878906 0.96582 -0.129883 1.91211 -0.129883 2.90039
c0 17.6611 14.3389 32 32 32h448zM439.2 -16l23.3193 256h-413l23.2803 -256h366.4zM256 0c-80.1299 0 -148.24 45.29 -152.34 104c-4.33008 61.9502 63.7598 114.89 152.33 114.89c88.5693 0 156.67 -52.8896 152.35 -114.89c-4.08984 -58.71 -72.21 -104 -152.34 -104z
M256 120.41c-14.5498 0 -26.2598 -8.79004 -26.1299 -19.3203s11.8096 -19 26.1299 -19s26.0195 8.37012 26.1396 19s-11.5801 19.3203 -26.1396 19.3203z" />
    <glyph glyph-name="amp-guitar" unicode="&#xf8a1;" 
d="M464 368c26.4922 0 48 -21.5078 48 -48v-336c0 -26.4922 -21.5078 -48 -48 -48h-416c-26.4922 0 -48 21.5078 -48 48v336c0 26.4922 21.5078 48 48 48h61.5c24.75 27.29 80.9902 80 146.5 80s121.75 -52.71 146.5 -80h61.5zM256 400c-26.9004 0 -54 -14.7695 -76.25 -32
h152.5c-22.25 17.21 -49.3496 32 -76.25 32zM464 -16v192h-416v-192h416zM464 224v96h-416v-96h416zM128 48c8.83105 0 16 -7.16895 16 -16s-7.16895 -16 -16 -16s-16 7.16895 -16 16s7.16895 16 16 16zM192 112c-8.83105 0 -16 7.16895 -16 16s7.16895 16 16 16
s16 -7.16895 16 -16s-7.16895 -16 -16 -16zM96 64c-8.83105 0 -16 7.16895 -16 16s7.16895 16 16 16s16 -7.16895 16 -16s-7.16895 -16 -16 -16zM128 112c-8.83105 0 -16 7.16895 -16 16s7.16895 16 16 16s16 -7.16895 16 -16s-7.16895 -16 -16 -16zM256 112
c-8.83105 0 -16 7.16895 -16 16s7.16895 16 16 16s16 -7.16895 16 -16s-7.16895 -16 -16 -16zM384 112c-8.83105 0 -16 7.16895 -16 16s7.16895 16 16 16s16 -7.16895 16 -16s-7.16895 -16 -16 -16zM320 112c-8.83105 0 -16 7.16895 -16 16s7.16895 16 16 16
s16 -7.16895 16 -16s-7.16895 -16 -16 -16zM160 64c-8.83105 0 -16 7.16895 -16 16s7.16895 16 16 16s16 -7.16895 16 -16s-7.16895 -16 -16 -16zM352 64c-8.83105 0 -16 7.16895 -16 16s7.16895 16 16 16s16 -7.16895 16 -16s-7.16895 -16 -16 -16zM384 48
c8.83105 0 16 -7.16895 16 -16s-7.16895 -16 -16 -16s-16 7.16895 -16 16s7.16895 16 16 16zM320 48c8.83105 0 16 -7.16895 16 -16s-7.16895 -16 -16 -16s-16 7.16895 -16 16s7.16895 16 16 16zM192 48c8.83105 0 16 -7.16895 16 -16s-7.16895 -16 -16 -16
s-16 7.16895 -16 16s7.16895 16 16 16zM416 64c-8.83105 0 -16 7.16895 -16 16s7.16895 16 16 16s16 -7.16895 16 -16s-7.16895 -16 -16 -16zM224 64c-8.83105 0 -16 7.16895 -16 16s7.16895 16 16 16s16 -7.16895 16 -16s-7.16895 -16 -16 -16zM256 48
c8.83105 0 16 -7.16895 16 -16s-7.16895 -16 -16 -16s-16 7.16895 -16 16s7.16895 16 16 16zM288 64c-8.83105 0 -16 7.16895 -16 16s7.16895 16 16 16s16 -7.16895 16 -16s-7.16895 -16 -16 -16zM112 248c-13.2461 0 -24 10.7539 -24 24s10.7539 24 24 24
s24 -10.7539 24 -24s-10.7539 -24 -24 -24zM192 248c-13.2461 0 -24 10.7539 -24 24s10.7539 24 24 24s24 -10.7539 24 -24s-10.7539 -24 -24 -24z" />
    <glyph glyph-name="badge-sheriff" unicode="&#xf8a2;" 
d="M440 128c0.03125 0 0.0791016 -0.0302734 0.110352 -0.0302734c22.0762 0 40 -17.9238 40 -40s-17.9238 -40 -40 -40c-16.4014 0 -30.5098 9.89258 -36.6807 24.0303h-76.71l-41.3096 -69.3799c6.50098 -6.98926 10.5078 -16.3506 10.5898 -26.6201
c0 -22.0762 -17.9238 -40 -40 -40s-40 17.9238 -40 40c0.0927734 10.2041 4.06152 19.5117 10.5 26.4805l-41.3799 69.5195h-76.5498c-6.1709 -14.1377 -20.2617 -24 -36.6631 -24c-22.0762 0 -40 17.9238 -40 40c0 22.0771 17.9238 40 40 40h0.0927734
c1.16992 0 2.15039 -0.570312 3.29004 -0.660156l38.4902 64.6104l-38.5 64.71c-1.14062 -0.100586 -2.12012 -0.660156 -3.28027 -0.660156c-0.03125 0 -0.0791016 0.0302734 -0.110352 0.0302734c-22.0762 0 -40 17.9238 -40 40s17.9238 40 40 40
c16.4014 0 30.5098 -9.89258 36.6807 -24.0303h76.71l41.3096 69.3799c-6.50098 6.98926 -10.5078 16.3506 -10.5898 26.6201c0 22.0762 17.9238 40 40 40s40 -17.9238 40 -40c-0.0927734 -10.2041 -4.06152 -19.5117 -10.5 -26.4805l41.3799 -69.5693h76.5498
c6.1709 14.1377 20.2617 24 36.6631 24c22.0762 0 40 -17.9238 40 -40c0 -22.0771 -17.9238 -40 -40 -40h-0.0927734c-1.16992 0 -2.15039 0.569336 -3.29004 0.660156l-38.4902 -64.6104l38.5 -64.6602c1.14062 0.100586 2.12012 0.660156 3.28027 0.660156zM313.06 120
h72.1602l-35.5293 59.7998c-2.13379 3.58594 -3.3584 7.82422 -3.3584 12.2959s1.22461 8.6582 3.3584 12.2441l35.5293 59.6602h-72c-8.77441 0 -16.4443 4.69336 -20.6299 11.7305l-36.5 61.3496l-36.5303 -61.3604
c-4.18652 -7.03027 -11.8496 -11.7197 -20.6191 -11.7197h-72.1602l35.5293 -59.7998c2.13379 -3.58594 3.3584 -7.82422 3.3584 -12.2959s-1.22461 -8.6582 -3.3584 -12.2441l-35.5293 -59.6602h72c8.77441 0 16.4443 -4.69336 20.6299 -11.7305l36.5 -61.3496
l36.5303 61.3604c4.18652 7.03027 11.8496 11.7197 20.6191 11.7197zM256 240c26.4922 0 48 -21.5078 48 -48s-21.5078 -48 -48 -48s-48 21.5078 -48 48s21.5078 48 48 48z" />
    <glyph glyph-name="banjo" unicode="&#xf8a3;" 
d="M502.63 409c5.76465 -5.78809 9.33008 -13.7783 9.33008 -22.585c0 -8.82129 -3.57812 -16.8145 -9.36035 -22.6055l-46.3193 -46.3096c-3.83008 -3.83398 -8.53516 -6.77734 -13.79 -8.53027l-53.3506 -17.7793l-63 -63
c15.8857 -21.1943 26.9111 -46.6045 31.1904 -73.9102l0.469727 -0.0703125c14.4492 0 26.1807 -11.7305 26.1807 -26.1797s-11.7314 -26.1807 -26.1807 -26.1807h-0.459961c-4.12402 -26.6143 -14.6592 -51.4629 -29.8398 -72.3398l0.230469 -0.219727
c5.13965 -4.78125 8.34863 -11.6104 8.34863 -19.1768c0 -14.4492 -11.7305 -26.1797 -26.1797 -26.1797c-7.56641 0 -14.3877 3.2168 -19.1689 8.35645l-0.230469 0.229492c-20.8721 -15.1699 -45.7148 -25.6973 -72.3203 -29.8193v-0.459961
c0 -14.4492 -11.7305 -26.1807 -26.1797 -26.1807s-26.1797 11.7314 -26.1797 26.1807v0.459961c-26.6055 4.12207 -51.4482 14.6494 -72.3203 29.8193l-0.230469 -0.229492c-4.78125 -5.13965 -11.6094 -8.34961 -19.1758 -8.34961
c-14.4492 0 -26.1807 11.7314 -26.1807 26.1807c0 7.56641 3.2168 14.3877 8.35645 19.1689l0.230469 0.219727c-15.1807 20.877 -25.7158 45.7256 -29.8398 72.3398h-0.459961c-14.4492 0 -26.1807 11.7314 -26.1807 26.1807s11.7314 26.1797 26.1807 26.1797h0.459961
c4.12402 26.6143 14.6592 51.4639 29.8398 72.3398l-0.230469 0.219727c-4.34863 4.67578 -7.00293 10.9482 -7.00293 17.8311c0 14.4492 11.7305 26.1807 26.1797 26.1807c6.88281 0 13.1484 -2.66211 17.8232 -7.01172l0.230469 -0.229492
c20.8711 15.1777 45.7129 25.7119 72.3203 29.8398v0.459961c0 14.4492 11.7305 26.1797 26.1797 26.1797s26.1797 -11.7305 26.1797 -26.1797l0.510742 -0.509766c27.165 -4.34863 52.4424 -15.3682 73.54 -31.2002l62.8799 62.8701l17.8896 53.5195
c1.73828 5.25098 4.66504 9.95703 8.48047 13.79l46.3096 46.3203c5.79297 5.79395 13.8027 9.37988 22.6348 9.37988s16.833 -3.58594 22.625 -9.37988zM192 8c66.1963 0.0712891 119.929 53.8037 120 120c0 66.2295 -53.7705 120 -120 120s-120 -53.7705 -120 -120
s53.7705 -120 120 -120zM150.62 139.31l52.6895 -52.6797c2.89746 -2.89648 4.69043 -6.90137 4.69043 -11.3174s-1.79297 -8.41602 -4.69043 -11.3125l-11.3096 -11.3096c-2.89648 -2.89746 -6.90137 -4.69043 -11.3174 -4.69043s-8.41602 1.79297 -11.3125 4.69043
l-52.6904 52.6797c-2.89648 2.89648 -4.68945 6.90137 -4.68945 11.3174s1.79297 8.41602 4.68945 11.3125l11.3105 11.3096c2.89648 2.89746 6.90137 4.69043 11.3174 4.69043s8.41602 -1.79297 11.3125 -4.69043z" />
    <glyph glyph-name="betamax" unicode="&#xf8a4;" 
d="M464 48v208h48v-208c0 -26.4922 -21.5078 -48 -48 -48h-416c-26.4922 0 -48 21.5078 -48 48v208h48v-208h416zM240 160c0 -44.1533 -35.8467 -80 -80 -80s-80 35.8467 -80 80s35.8467 80 80 80s80 -35.8467 80 -80zM128 160c0 -17.6611 14.3389 -32 32 -32
s32 14.3389 32 32s-14.3389 32 -32 32s-32 -14.3389 -32 -32zM496 384c8.83105 0 16 -7.16895 16 -16v-80h-512v80c0 8.83105 7.16895 16 16 16h480zM400 80h-96c-17.6611 0 -32 14.3389 -32 32v96c0 17.6611 14.3389 32 32 32h96c17.6611 0 32 -14.3389 32 -32v-96
c0 -17.6611 -14.3389 -32 -32 -32zM320 192v-64h64v64h-64z" />
    <glyph glyph-name="boombox" unicode="&#xf8a5;" horiz-adv-x="640" 
d="M448 16c-52.9834 0 -96 43.0166 -96 96s43.0166 96 96 96s96 -43.0166 96 -96s-43.0166 -96 -96 -96zM592 288c26.4922 0 48 -21.5078 48 -48v-256c0 -26.4922 -21.5078 -48 -48 -48h-544c-26.4922 0 -48 21.5078 -48 48v256c0 26.4922 21.5078 48 48 48v104
c0.0380859 30.8896 25.1104 55.9619 56 56h432c30.8916 -0.0332031 55.9668 -25.1084 56 -56v-104zM96 392v-104h96v16c0 8.83105 7.16895 16 16 16h32c8.83105 0 16 -7.16895 16 -16v-16h32v16c0 8.83105 7.16895 16 16 16h32c8.83105 0 16 -7.16895 16 -16v-16h32v16
c0 8.83105 7.16895 16 16 16h32c8.83105 0 16 -7.16895 16 -16v-16h96v104c0 4.41504 -3.58496 8 -8 8h-432c-4.41504 0 -8 -3.58496 -8 -8zM592 -16v256h-544v-256h544zM192 16c-52.9834 0 -96 43.0166 -96 96s43.0166 96 96 96s96 -43.0166 96 -96s-43.0166 -96 -96 -96z
" />
    <glyph glyph-name="cactus" unicode="&#xf8a7;" 
d="M240 318.06c8.83105 0 16 -7.16895 16 -16c0 -8.83008 -7.16895 -16 -16 -16s-16 7.16992 -16 16c0 8.83105 7.16895 16 16 16zM272 94.0596c8.83105 0 16 -7.16895 16 -16c0 -8.83008 -7.16895 -16 -16 -16s-16 7.16992 -16 16c0 8.83105 7.16895 16 16 16zM464 224
c26.4922 0 48 -21.5078 48 -48v-64c0 -61.8145 -50.1855 -112 -112 -112h-48v-32c0 -17.6611 -14.3389 -32 -32 -32h-128c-17.6611 0 -32 14.3389 -32 32v160h-48c-61.8145 0 -112 50.1855 -112 112v64c0 26.4922 21.5078 48 48 48s48 -21.5078 48 -48v-64
c0 -8.83105 7.16895 -16 16 -16h48v128c0 52.9834 43.0166 96 96 96c1.70996 0 3.42969 0 5.16016 -0.129883c51.9102 -2.71973 90.8398 -49.2998 90.8398 -101.3v-250.57h48c8.83105 0 16 7.16895 16 16v64c0 26.4922 21.5078 48 48 48zM304 -16v362.57
c0 28.1094 -20.3496 52.0498 -45.3496 53.3594l-2.65039 0.0703125c-26.4922 0 -48 -21.5078 -48 -48v-368h96z" />
    <glyph glyph-name="camcorder" unicode="&#xf8a8;" horiz-adv-x="576" 
d="M543.86 288c16.6494 0 32.1396 -13 32.1396 -31.5v-256.91c0 -18.5898 -15.5195 -31.5898 -32.1504 -31.5898c-6.77734 0.0244141 -13.0938 2.17676 -18.2598 5.7998l-109.59 75v-16.7998c0 -35.3223 -28.6777 -64 -64 -64h-288c-35.3223 0 -64 28.6777 -64 64v192
c0.0517578 29.71 20.4648 54.6836 48 61.7402v42.2598c0 48.5684 39.4316 88 88 88h168c8.83105 0 16 -7.16895 16 -16v-16c0 -8.83105 -7.16895 -16 -16 -16h-168c-22.0762 0 -40 -17.9238 -40 -40v-40h256c35.3223 0 64 -28.6777 64 -64v-16.7305l109.59 75
c5.17969 3.59375 11.4971 5.72168 18.2705 5.73047zM368 32v192c0 8.83105 -7.16895 16 -16 16h-288c-8.83105 0 -16 -7.16895 -16 -16v-192c0 -8.83105 7.16895 -16 16 -16h288c8.83105 0 16 7.16895 16 16zM528 30.3096v195.46l-112 -76.6797v-42.0898zM304 192
c8.83105 0 16 -7.16895 16 -16v-16c0 -8.83105 -7.16895 -16 -16 -16h-192c-8.83105 0 -16 7.16895 -16 16v16c0 8.83105 7.16895 16 16 16h192z" />
    <glyph glyph-name="camera-movie" unicode="&#xf8a9;" horiz-adv-x="576" 
d="M176 352c26.4922 0 48 -21.5078 48 -48s-21.5078 -48 -48 -48s-48 21.5078 -48 48s21.5078 48 48 48zM368 352c26.4922 0 48 -21.5078 48 -48s-21.5078 -48 -48 -48s-48 21.5078 -48 48s21.5078 48 48 48zM550.29 208c13.3203 0 25.71 -10.4004 25.71 -25.2197v-221.5
c0 -14.8701 -12.4102 -25.2305 -25.71 -25.2305c-5.4209 0.00390625 -10.4736 1.71387 -14.6104 4.60059l-87.6797 58.6191v0.730469c0 -35.3223 -28.6777 -64 -64 -64h-240c-35.3223 0 -64 28.6777 -64 64v80h-48c-17.6611 0 -32 14.3389 -32 32v64
c0 17.6611 14.3389 32 32 32h37.46c-23.0303 25.54 -37.46 59 -37.46 96c0 79.4004 64.5996 144 144 144c35.1504 0 69.2402 -13.2695 96 -37.3701c26.7598 24.1006 60.8496 37.3701 96 37.3701c79.4004 0 144 -64.5996 144 -144c0 -54 -30.25 -100.62 -74.3701 -125.26
c6.52539 -9.96973 10.3623 -21.9482 10.3701 -34.7402v0.780273l87.6797 58.6299c4.1416 2.87598 9.19336 4.58008 14.6104 4.58984zM400 0v144c0 8.83105 -7.16895 16 -16 16h-336v-32h80v-128c0 -8.83105 7.16895 -16 16 -16h240c8.83105 0 16 7.16895 16 16zM368 208
c52.9834 0 96 43.0166 96 96s-43.0166 96 -96 96c-23.2695 0 -45.9502 -8.86035 -63.8701 -25l-32.1299 -29l-32.1201 29c-17.9297 16.1104 -40.6104 25 -63.8799 25c-52.9834 0 -96 -43.0166 -96 -96s43.0166 -96 96 -96h192zM528 3.51953v136.98l-80 -53.5v-30z" />
    <glyph glyph-name="camera-polaroid" unicode="&#xf8aa;" horiz-adv-x="576" 
d="M288 320c44.123 -0.0664062 79.9336 -35.877 80 -80c0 -44.1533 -35.8467 -80 -80 -80s-80 35.8467 -80 80s35.8467 80 80 80zM288 208c17.6611 0 32 14.3389 32 32s-14.3389 32 -32 32s-32 -14.3389 -32 -32s14.3389 -32 32 -32zM570.63 104.06
c3.37988 -5.07227 5.37012 -11.1953 5.37012 -17.7432v-0.00683594v-86.3096c0 -17.6611 -14.3389 -32 -32 -32h-512c-17.6611 0 -32 14.3389 -32 32v86.3096c0.00195312 6.55078 1.99512 12.6768 5.37988 17.75l58.6201 87.9404v176c0 26.4922 21.5078 48 48 48h352
c26.4922 0 48 -21.5078 48 -48v-176zM112 177.47l-43.6396 -65.4697h439.279l-43.6396 65.4697v190.53h-352v-190.53zM528 16v48h-480v-48h480zM424 336c4.41504 0 8 -3.58496 8 -8v-32c0 -4.41504 -3.58496 -8 -8 -8h-32c-4.41504 0 -8 3.58496 -8 8v32
c0 4.41504 3.58496 8 8 8h32z" />
    <glyph glyph-name="cassette-tape" unicode="&#xf8ab;" 
d="M144 160c-35.3223 0 -64 28.6777 -64 64s28.6777 64 64 64h224c35.3223 0 64 -28.6777 64 -64s-28.6777 -64 -64 -64h-224zM368 240c-8.83105 0 -16 -7.16895 -16 -16s7.16895 -16 16 -16s16 7.16895 16 16s-7.16895 16 -16 16zM205.73 240
c1.47168 -5.08301 2.26074 -10.4375 2.26074 -15.9912c0 -5.55469 -0.789062 -10.9258 -2.26074 -16.0088h100.539c-1.47168 5.08301 -2.26074 10.4375 -2.26074 15.9912c0 5.55469 0.789062 10.9258 2.26074 16.0088h-100.539zM144 240c-8.83105 0 -16 -7.16895 -16 -16
s7.16895 -16 16 -16s16 7.16895 16 16s-7.16895 16 -16 16zM464 384c26.4922 0 48 -21.5078 48 -48v-288c0 -26.4922 -21.5078 -48 -48 -48h-416c-26.4922 0 -48 21.5078 -48 48v288c0 26.4922 21.5078 48 48 48h416zM141.67 48h228.66l-16 32h-196.66zM464 48v288h-416
v-288h40l40 80h256l40 -80h40z" />
    <glyph glyph-name="cctv" unicode="&#xf8ac;" horiz-adv-x="576" 
d="M573.86 191.6c1.37012 -3.47363 2.12012 -7.2998 2.12012 -11.2588c0 -4.44043 -0.947266 -8.66113 -2.65039 -12.4707l-41.6504 -94.8301c-4.84277 -10.9199 -15.79 -18.5059 -28.4971 -18.5059c-4.34863 0 -8.49121 0.892578 -12.2529 2.50586l-0.0898438 0.0595703
l-136.82 60.1602l-20.7891 -13c-2.89062 -1.7998 -15.0908 -7.58984 -27.8906 -2.93945l-75.9199 31.4492l-46.9502 -125.21c-3.41602 -9.09277 -12.1895 -15.5596 -22.4697 -15.5596h-112v-40c0 -8.83105 -7.16895 -16 -16 -16h-16c-8.83105 0 -16 7.16895 -16 16v128
c0 8.83105 7.16895 16 16 16h16c8.83105 0 16 -7.16895 16 -16v-40h95.3701l41.71 111.14l-164 67.9199c-12.2881 4.46973 -21.041 16.2822 -21.041 30.1074c0 5.75781 1.52441 11.1631 4.19141 15.833l95.3398 166.85c4.66016 8.15039 20.3301 21.5605 39.6699 13.8301
l378.189 -166.27c23.8203 -9.53027 26.9902 -41.5 6.25 -55.8604l33.8008 -14.8594c7.50293 -3.27539 13.415 -9.42676 16.3799 -17.0908zM314.8 149.35l156.59 97.8701l-337.3 148.29l-79.1602 -138.51z" />
    <glyph glyph-name="clarinet" unicode="&#xf8ad;" horiz-adv-x="640" 
d="M616 336c13.2461 0 24 -10.7539 24 -24v-240c0 -13.2461 -10.7783 -23.9883 -24.0244 -23.9883c-4.89453 0 -9.44824 1.46875 -13.2451 3.98828l-66 44h-435.53c-0.00683594 0 -0.0185547 0.0078125 -0.0253906 0.0078125c-3.52734 0 -6.92188 0.574219 -10.0947 1.63184
l-69.2002 23.0703c-12.708 4.23633 -21.877 16.2266 -21.8799 30.3496v81.8809c0.00292969 14.123 9.17188 26.1133 21.8799 30.3496l69.2002 23.0703c3.17285 1.05762 6.57227 1.63965 10.0996 1.63965h0.0205078h154.8v32h-24c-4.41504 0 -8 3.58496 -8 8v16
c0 4.41504 3.58496 8 8 8h272c4.41504 0 8 -3.58496 8 -8v-16c0 -4.41504 -3.58496 -8 -8 -8h-24v-32h56.7197l66 44c3.76465 2.51758 8.31055 4 13.1748 4h0.105469zM384 320v-32h64v32h-64zM288 320v-32h64v32h-64zM592 116.85v150.311l-40.7305 -27.1602h-447.479
l-55.79 -18.5996v-58.8008l55.79 -18.5996h447.479zM464 216c13.2461 0 24 -10.7539 24 -24s-10.7539 -24 -24 -24s-24 10.7539 -24 24s10.7539 24 24 24zM368 216c13.2461 0 24 -10.7539 24 -24s-10.7539 -24 -24 -24s-24 10.7539 -24 24s10.7539 24 24 24zM272 216
c13.2461 0 24 -10.7539 24 -24s-10.7539 -24 -24 -24s-24 10.7539 -24 24s10.7539 24 24 24z" />
    <glyph glyph-name="cloud-music" unicode="&#xf8ae;" horiz-adv-x="640" 
d="M543.69 247.91c56.1426 -19.6572 96.415 -73.0918 96.415 -135.91c0 -79.4756 -64.5244 -144 -144 -144h-0.105469h-336c-88.3066 0 -160.104 71.626 -160.104 159.932c0 67.0146 41.2891 124.462 99.7939 148.269c16.7451 79.75 87.4785 139.959 172.177 139.959
c55.7412 0 105.466 -25.9697 137.723 -66.459c7.31543 1.50684 14.8105 2.20215 22.5693 2.20215c59.0791 0 107.518 -45.9248 111.531 -103.992zM496 16c52.9834 0 96 43.0166 96 96s-43.0166 96 -96 96c-0.217773 0.00195312 -0.341797 0.00585938 -0.55957 0.00585938
c-2.78516 0 -5.53711 -0.140625 -8.25 -0.416016c5.53711 9.46973 8.7168 20.5391 8.7168 32.291c0 35.3223 -28.6777 64 -64 64c-15.8271 0 -30.3203 -5.75781 -41.4971 -15.291c-19.1357 46.6104 -64.9385 79.3887 -118.41 79.3887
c-70.6377 0 -127.988 -57.3438 -128 -127.979v-1.08984c-54.3945 -7.64258 -96.4258 -54.4229 -96.4258 -110.911c0 -61.8145 50.1855 -112 112 -112c0.141602 0 0.28418 0 0.425781 0.000976562h336zM363.19 271.25c1.51758 0.478516 3.13379 0.740234 4.80957 0.740234
c8.82715 0 15.9941 -7.16406 16 -15.9902v-144c0 -17.6699 -21.5 -32 -48 -32s-48 14.3301 -48 32s21.5 32 48 32c5.51758 -0.0429688 10.8604 -0.736328 16 -2v60.3604l-96 -37.5205v-84.8398c0 -17.6699 -21.5 -32 -48 -32s-48 14.3301 -48 32s21.5 32 48 32
c5.51758 -0.0429688 10.8604 -0.736328 16 -2v98.75c0.00488281 7.15039 4.70898 13.207 11.1904 15.25z" />
    <glyph glyph-name="comment-alt-music" unicode="&#xf8af;" 
d="M331.19 351.25c1.51758 0.478516 3.13379 0.740234 4.80957 0.740234c8.82715 0 15.9941 -7.16406 16 -15.9902v-144c0 -17.6699 -21.5 -32 -48 -32s-48 14.3301 -48 32s21.5 32 48 32c5.51562 -0.0478516 10.8584 -0.741211 16 -2v60.3604l-96 -37.5205v-84.8398
c0 -17.6699 -21.5 -32 -48 -32s-48 14.3301 -48 32s21.5 32 48 32c5.51562 -0.0478516 10.8584 -0.741211 16 -2v98.75c0.00488281 7.15039 4.70898 13.207 11.1904 15.25zM448 448c35.3096 -0.0273438 63.9727 -28.6904 64 -64v-288
c-0.0273438 -35.3096 -28.6904 -63.9727 -64 -64h-144l-124.91 -93.5898c-1.92676 -1.50684 -4.3584 -2.41016 -6.99121 -2.41016h-0.0986328c-6.62305 0 -12 5.37695 -12 12v84h-96c-35.3096 0.0273438 -63.9727 28.6904 -64 64v288
c0.0273438 35.3096 28.6904 63.9727 64 64h384zM464 96v288c0 8.83105 -7.16895 16 -16 16h-384c-8.83105 0 -16 -7.16895 -16 -16v-288c0 -8.83105 7.16895 -16 16 -16h144v-60l67.1904 50.4102l12.8096 9.58984h160c8.83105 0 16 7.16895 16 16z" />
    <glyph glyph-name="comment-music" unicode="&#xf8b0;" 
d="M256 416c141.42 0 256 -93.0898 256 -208s-114.61 -208 -256 -208c-32.3467 0.000976562 -63.5508 5.05469 -92.8604 14.2998c-29.0801 -20.5996 -77.5898 -46.2998 -139.08 -46.2998c-0.0107422 0 -0.0205078 0.00683594 -0.03125 0.00683594
c-13.2461 0 -24 10.7539 -24 24c0 6.38574 2.49902 12.1914 6.57129 16.4932c0.5 0.410156 31.4902 33.7998 46.4004 73.2002c-33 35.0996 -52.9297 78.71 -52.9297 126.3c0 114.91 114.569 208 255.93 208zM256 48c114.71 0 208.06 71.7998 208.06 160
s-93.2998 160 -208 160c-114.699 0 -208 -71.7998 -208 -160c0 -42.2002 21.6807 -74.0898 39.8105 -93.4102l20.6299 -21.79l-10.5898 -28.0996c-5.44336 -14.0029 -12.165 -27.5381 -19.9102 -40.2002c20.6611 6.77734 40.1201 16.6641 57.5 29l19.5 13.7998
l22.6104 -7.20996c24.7246 -7.81641 51.0938 -12.0898 78.3896 -12.0898zM331.18 319.25c1.5127 0.474609 3.15234 0.733398 4.82031 0.733398c8.8252 0 15.9912 -7.16016 16 -15.9834v-144c0 -17.6699 -21.5 -32 -48 -32s-48 14.3301 -48 32s21.5 32 48 32
c5.5166 -0.0478516 10.8584 -0.741211 16 -2v60.3604l-96 -37.5205v-84.8398c0 -17.6699 -21.5 -32 -48 -32s-48 14.3301 -48 32s21.5098 32 48 32c5.51562 -0.0478516 10.8584 -0.741211 16 -2v98.75c0.00976562 7.16016 4.73242 13.2207 11.2305 15.25z" />
    <glyph glyph-name="computer-classic" unicode="&#xf8b1;" horiz-adv-x="448" 
d="M360 144c4.41504 0 8 -3.58496 8 -8v-16c0 -4.41504 -3.58496 -8 -8 -8h-144c-4.41504 0 -8 3.58496 -8 8v16c0 4.41504 3.58496 8 8 8h144zM96 108c-11.0381 0 -20 8.96191 -20 20s8.96191 20 20 20s20 -8.96191 20 -20s-8.96191 -20 -20 -20zM112 192
c-17.6611 0 -32 14.3389 -32 32v112c0 17.6611 14.3389 32 32 32h224c17.6611 0 32 -14.3389 32 -32v-112c0 -17.6611 -14.3389 -32 -32 -32h-224zM416 448c17.6611 0 32 -14.3389 32 -32v-352c0 -17.6611 -14.3389 -32 -32 -32v-64c0 -17.6611 -14.3389 -32 -32 -32h-320
c-17.6611 0 -32 14.3389 -32 32v64c-17.6611 0 -32 14.3389 -32 32v352c0 17.6611 14.3389 32 32 32h384zM368 -16v48h-288v-48h288zM400 80v320h-352v-320h352z" />
    <glyph glyph-name="computer-speaker" unicode="&#xf8b2;" horiz-adv-x="640" 
d="M592 416c26.4922 0 48 -21.5078 48 -48v-352c0 -26.4922 -21.5078 -48 -48 -48h-224c-26.4922 0 -48 21.5078 -48 48v352c0 26.4922 21.5078 48 48 48h224zM592 16v352h-224v-352h224zM112 16h176c0.0644531 -18.0264 6.19629 -34.71 16.4102 -48h-192.41
c-8.83105 0 -16 7.16895 -16 16v16c0 8.83105 7.16895 16 16 16zM0 368c0 26.4922 21.5078 48 48 48h256.41c-10.2139 -13.29 -16.3457 -29.9736 -16.4102 -48h-240v-256h240v-48h-240c-26.4922 0 -48 21.5078 -48 48v256zM480 256c-17.6611 0 -32 14.3389 -32 32
s14.3389 32 32 32s32 -14.3389 32 -32s-14.3389 -32 -32 -32zM480 48c-44.1533 0 -80 35.8467 -80 80s35.8467 80 80 80s80 -35.8467 80 -80s-35.8467 -80 -80 -80zM480 160c-17.6611 0 -32 -14.3389 -32 -32s14.3389 -32 32 -32s32 14.3389 32 32s-14.3389 32 -32 32z" />
    <glyph glyph-name="cowbell" unicode="&#xf8b3;" horiz-adv-x="448" 
d="M384.19 325.65l63.2998 -352c0.330078 -1.84375 0.503906 -3.71289 0.503906 -5.65039c0 -17.6611 -14.3389 -32 -32 -32h-0.0644531h-383.859c-0.0214844 0 -0.0419922 -0.0283203 -0.0634766 -0.0283203c-17.6611 0 -32 14.3389 -32 32
c0 1.9375 0.172852 3.83496 0.50293 5.67871l63.2998 352c2.68359 14.9561 15.7725 26.3496 31.4971 26.3496h0.0537109h16.8398v48c0.0546875 26.4971 21.5811 47.9941 48.0898 48h128.229c0.00683594 0 0.0136719 -0.00195312 0.0205078 -0.00195312
c26.5137 0 48.0449 -21.498 48.0996 -47.998v-48h16c0.0185547 0 0.0351562 -0.0283203 0.0537109 -0.0283203c15.7236 0 28.8135 -11.3652 31.4971 -26.3213zM160 400v-48h128v48h-128zM51.1396 -16h345.721l-57.54 320h-230.641z" />
    <glyph glyph-name="cowbell-more" unicode="&#xf8b4;" horiz-adv-x="640" 
d="M464 288c97.0498 0 176 -78.9502 176 -176s-79 -176 -176 -176s-176 79 -176 176s79 176 176 176zM464 -16c70.6455 0 128 57.3545 128 128s-57.3545 128 -128 128s-128 -57.3545 -128 -128s57.3545 -128 128 -128zM544 136c8.83105 0 16 -7.16895 16 -16v-16
c0 -8.83105 -7.16895 -16 -16 -16h-56v-56c0 -8.83105 -7.16895 -16 -16 -16h-16c-8.83105 0 -16 7.16895 -16 16v56h-56c-8.83105 0 -16 7.16895 -16 16v16c0 8.83105 7.16895 16 16 16h56v56c0 8.83105 7.16895 16 16 16h16c8.83105 0 16 -7.16895 16 -16v-56h56z
M300.39 -16c14.916 -19.0127 32.7432 -35.0947 53.2705 -48h-321.59c-0.0214844 0 -0.0419922 -0.0283203 -0.0634766 -0.0283203c-17.6611 0 -32 14.3389 -32 32c0 1.9375 0.172852 3.83496 0.50293 5.67871l63.2998 352c2.68359 14.9561 15.7725 26.3496 31.4971 26.3496
h0.0537109h16.8398v48c0.0546875 26.4971 21.5811 47.9941 48.0898 48h128.229c0.00683594 0 0.0136719 -0.00195312 0.0205078 -0.00195312c26.5137 0 48.0449 -21.498 48.0996 -47.998v-48h16c0.0185547 0 0.0351562 -0.0283203 0.0537109 -0.0283203
c15.7236 0 28.8135 -11.3652 31.4971 -26.3213l3.64941 -20.29c-15.8271 -6.25586 -30.7773 -14.4346 -44.4199 -24.2002l-4.09961 22.8398h-230.641l-57.54 -320h249.25zM160 400v-48h128v48h-128z" />
    <glyph glyph-name="disc-drive" unicode="&#xf8b5;" 
d="M256 336c79.4756 0 144 -64.5244 144 -144s-64.5244 -144 -144 -144s-144 64.5244 -144 144s64.5244 144 144 144zM256 160c17.6611 0 32 14.3389 32 32s-14.3389 32 -32 32s-32 -14.3389 -32 -32s14.3389 -32 32 -32zM496 16c8.83105 0 16 -7.16895 16 -16v-16
c0 -8.83105 -7.16895 -16 -16 -16h-480c-8.83105 0 -16 7.16895 -16 16v16c0 8.83105 7.16895 16 16 16h16v336c0 35.3223 28.6777 64 64 64h320c35.3223 0 64 -28.6777 64 -64v-336h16zM432 16v336c0 8.83105 -7.16895 16 -16 16h-320c-8.83105 0 -16 -7.16895 -16 -16
v-336h352z" />
    <glyph glyph-name="file-music" unicode="&#xf8b6;" horiz-adv-x="384" 
d="M144 176.71c0 0.0107422 -0.000976562 0.0166016 -0.000976562 0.0263672c0 7.15527 4.70703 13.2197 11.1914 15.2637l128 47.2402c1.51758 0.478516 3.13379 0.739258 4.80957 0.739258c8.82422 0 15.9893 -7.1582 16 -15.9795v-144c0 -17.6797 -21.5 -32 -48 -32
s-48 14.3301 -48 32s21.5 32 48 32c5.51562 -0.0478516 10.8584 -0.741211 16 -2v60.3203l-96 -37.5107v-84.8096c0 -17.6797 -21.5 -32 -48 -32s-48 14.3203 -48 32s21.5 32 48 32c5.51758 -0.0429688 10.8604 -0.736328 16 -2v98.71zM369.91 350
c8.69434 -8.71191 14.0723 -20.7363 14.0898 -34v-332c0 -26.4922 -21.5078 -48 -48 -48h-288c-26.4922 0 -48 21.5078 -48 48v415.92c0.0380859 26.4912 21.5195 47.998 48 48.0801h204.09c13.2373 -0.0175781 25.2334 -5.39648 33.9102 -14.0898zM256 396v-76.0801
h76.0898zM336 -16v287.92h-104c-0.0234375 0 -0.0458984 -0.000976562 -0.0703125 -0.000976562c-13.207 0 -23.9297 10.7227 -23.9297 23.9297v0.0712891v104h-160v-415.92h288z" />
    <glyph glyph-name="flashlight" unicode="&#xf8b8;" horiz-adv-x="640" 
d="M608 352c17.6611 0 32 -14.3389 32 -32v-256c0 -17.6611 -14.3389 -32 -32 -32h-32c-64.9014 0.000976562 -125.594 19.7334 -175.87 53.25l-16.1299 10.75h-336c-26.4922 0 -48 21.5078 -48 48v96c0 26.4922 21.5078 48 48 48h336l16.1104 10.7402
c50.2725 33.5234 110.986 53.2598 175.89 53.2598h32zM544 82.3496v219.301c-42.7812 -4.94141 -83.0537 -20.1553 -117.27 -42.8506l-28.1904 -18.7998h-350.54v-96h350.53l28.2295 -18.8096c34.2051 -22.6934 74.4678 -37.9043 117.24 -42.8408zM284 216
c13.2461 0 24 -10.7539 24 -24s-10.7539 -24 -24 -24h-24c-13.2461 0 -24 10.7539 -24 24s10.7539 24 24 24h24z" />
    <glyph glyph-name="flute" unicode="&#xf8b9;" horiz-adv-x="640" 
d="M592 288c26.4922 0 48 -21.5078 48 -48v-96c0 -26.4922 -21.5078 -48 -48 -48h-544c-26.4922 0 -48 21.5078 -48 48v96c0 26.4922 21.5078 48 48 48h544zM96 144v96h-48v-96h48zM592 144v96h-448v-96h448zM512 168c-13.2461 0 -24 10.7539 -24 24s10.7539 24 24 24
s24 -10.7539 24 -24s-10.7539 -24 -24 -24zM416 168c-13.2461 0 -24 10.7539 -24 24s10.7539 24 24 24s24 -10.7539 24 -24s-10.7539 -24 -24 -24zM320 168c-13.2461 0 -24 10.7539 -24 24s10.7539 24 24 24s24 -10.7539 24 -24s-10.7539 -24 -24 -24z" />
    <glyph glyph-name="game-console-handheld" unicode="&#xf8bb;" horiz-adv-x="384" 
d="M352 448c17.6611 0 32 -14.3389 32 -32v-384c0 -52.9834 -43.0166 -96 -96 -96h-256c-17.6611 0 -32 14.3389 -32 32v448c0 17.6611 14.3389 32 32 32h320zM336 32v368h-288v-416h240c26.4795 0.0273438 47.9727 21.5205 48 48zM112 208c-8.83105 0 -16 7.16895 -16 16
v128c0 8.83105 7.16895 16 16 16h160c8.83105 0 16 -7.16895 16 -16v-112c0 -17.6611 -14.3389 -32 -32 -32h-144zM88 96c-4.41504 0 -8 3.58496 -8 8v16c0 4.41504 3.58496 8 8 8h24v24c0 4.41504 3.58496 8 8 8h16c4.41504 0 8 -3.58496 8 -8v-24h24
c4.41504 0 8 -3.58496 8 -8v-16c0 -4.41504 -3.58496 -8 -8 -8h-24v-24c0 -4.41504 -3.58496 -8 -8 -8h-16c-4.41504 0 -8 3.58496 -8 8v24h-24zM232 112c13.2461 0 24 -10.7539 24 -24s-10.7539 -24 -24 -24s-24 10.7539 -24 24s10.7539 24 24 24zM256 136
c0 13.2461 10.7539 24 24 24s24 -10.7539 24 -24s-10.7539 -24 -24 -24s-24 10.7539 -24 24z" />
    <glyph glyph-name="gamepad-alt" unicode="&#xf8bc;" horiz-adv-x="640" 
d="M400 224c17.6611 0 32 -14.3389 32 -32s-14.3389 -32 -32 -32s-32 14.3389 -32 32s14.3389 32 32 32zM638.57 109.6c11.29 -74.4492 -45.5 -141.6 -119.771 -141.6h-0.25c-47.6455 0.140625 -88.7871 27.7637 -108.39 67.9404l-13.8301 28.0596h-152.66
l-13.8301 -28.0596c-19.6016 -40.1738 -60.7383 -67.7959 -108.38 -67.9404h-0.25c-74.2695 0 -131.07 67.1504 -119.77 141.6l27.4893 181.25c7.75 51.1504 45.6201 92.1504 95.3906 103.36c63.1377 14.2383 127.723 21.7539 195.136 21.7539
c67.4141 0 133.086 -7.51562 196.224 -21.7539c49.7705 -11.21 87.6406 -52.21 95.3906 -103.36zM573.72 41.4102c11.3789 13.2881 18.2764 30.5098 18.2764 49.3584c0 3.95508 -0.302734 7.83887 -0.885742 11.6318l-27.4902 181.25
c-4.83008 31.7998 -27.7803 56.8193 -58.4902 63.7393c-59.7324 13.4678 -120.833 20.5762 -184.61 20.5762c-63.7764 0 -125.906 -7.1084 -185.64 -20.5762c-30.71 -6.91992 -53.6699 -31.9395 -58.5 -63.7393l-27.4902 -181.24
c-0.583984 -3.79492 -0.866211 -7.64941 -0.866211 -11.6064c0 -18.8496 6.87695 -36.1055 18.2568 -49.3936c13.1289 -15.5615 32.7471 -25.4102 54.6807 -25.4102h0.249023c28.0303 0 53.0596 15.7695 65.5801 41.1699l13.8301 28.0498l13.2002 26.7803h212.359
l13.2002 -26.7803l13.8301 -28.0498c12.5205 -25.4004 37.5498 -41.1699 65.3398 -41.1699c0.146484 -0.000976562 0.266602 -0.0429688 0.413086 -0.0429688c21.9502 0 41.6074 9.88965 54.7568 25.4531zM496 288c17.6611 0 32 -14.3389 32 -32s-14.3389 -32 -32 -32
s-32 14.3389 -32 32s14.3389 32 32 32zM264 248c4.41504 0 8 -3.58496 8 -8v-32c0 -4.41504 -3.58496 -8 -8 -8h-48v-48c0 -4.41504 -3.58496 -8 -8 -8h-32c-4.41504 0 -8 3.58496 -8 8v48h-48c-4.41504 0 -8 3.58496 -8 8v32c0 4.41504 3.58496 8 8 8h48v48
c0 4.41504 3.58496 8 8 8h32c4.41504 0 8 -3.58496 8 -8v-48h48z" />
    <glyph glyph-name="gramophone" unicode="&#xf8bd;" horiz-adv-x="384" 
d="M56 128c-0.00292969 0 -0.00195312 -0.0078125 -0.00488281 -0.0078125c-13.2461 0 -24 10.7549 -24 24c0 2.15039 0.283203 4.23438 0.814453 6.21777l73.1904 272c2.73633 10.2451 12.0713 17.8301 23.1738 17.8301c9.54883 0 17.8027 -5.58887 21.666 -13.6699
c24.5898 -51.3701 86.0703 -160.83 169.75 -183.26c31.875 -8.58398 55.3896 -37.6943 55.4102 -72.2607c-0.0546875 -45.6592 -37.1191 -82.7197 -82.7803 -82.7695h-133.22v24c0 13.2461 10.7539 24 24 24h109.22c19.1846 0.0166016 34.7578 15.5869 34.7803 34.7695
c-0.000976562 12.3789 -8.42383 22.8037 -19.8398 25.8701c-11.6543 3.04004 -23.8096 4.67383 -36.4102 4.67383c-0.333984 0 -0.666992 -0.000976562 -1 -0.00390625c-76.1904 0 -161.06 -49.71 -201.19 -77.1895c-3.85352 -2.64062 -8.53906 -4.19922 -13.5596 -4.2002z
M136.7 359.24l-41.7998 -156.25c36.5596 20.3193 81.5498 40.5195 127.8 49.5195c-35.4199 30.7305 -64.21 70.2998 -86 106.73zM368 -16c8.83105 0 16 -7.16895 16 -16v-16c0 -8.83105 -7.16895 -16 -16 -16h-352c-8.83105 0 -16 7.16895 -16 16v16
c0 8.83105 7.16895 16 16 16h16v48c0 17.6611 14.3389 32 32 32h256c17.6611 0 32 -14.3389 32 -32v-48h16zM304 -16v32h-224v-32h224z" />
    <glyph glyph-name="guitar-electric" unicode="&#xf8be;" 
d="M511.21 408.42c0.539062 -2.87793 0.821289 -5.80664 0.821289 -8.83984c0 -26.4922 -21.5078 -48 -48 -48h-0.03125c-4.25 0.0576172 -8.36914 0.682617 -12.2803 1.79004l-149.37 -149.4c2.07031 -2.06934 6.58008 -6.12012 13.5801 -3.88965l21.8008 6.9502
c3.89941 1.23926 25.1797 7.2002 42.7598 -10.3799c7.66113 -7.6543 12.4023 -18.2422 12.4023 -29.916c0 -11.6748 -4.74121 -22.25 -12.4023 -29.9043l-19.8398 -19.8301c-9.93652 -9.89258 -22.0078 -17.584 -35.4805 -22.3896
c-12.0186 -4.3125 -21.7676 -13.2588 -27.1201 -24.7402l-32.0498 -69.1504c-15.1562 -37.9512 -52.2412 -64.751 -95.5752 -64.751c-28.4199 0 -54.165 11.5469 -72.7949 30.2012l-67.5098 67.5c-18.6221 18.5859 -30.1338 44.2168 -30.1338 72.5791
c0 7.16113 0.735352 14.1514 2.13379 20.9014c6.97949 33.9893 30.4297 61.9795 61.4297 74.3594l70.29 32.5703c11.4814 5.34766 20.4277 15.0947 24.7402 27.1104c4.81445 13.4727 12.5156 25.54 22.4199 35.4697l35.2305 35.2402
c7.47852 7.48926 17.7979 12.084 29.209 12.084c22.7988 0 41.3096 -18.5107 41.3096 -41.3105c0 -6.22363 -1.37988 -12.1279 -3.84863 -17.4238l-15.9004 -34.1797c-0.649414 -1.50781 -1.00977 -3.18652 -1.00977 -4.93164c0 -2.96973 1.04199 -5.69824 2.7793 -7.83887
l83.2305 83.1699v44.5898c0.00976562 11.333 5.8623 21.2822 14.7402 27c83.9199 54.1504 83.7402 57.9404 106.67 53.6309c19.1143 -3.84766 34.1826 -19.0742 37.7998 -38.2705zM312.08 159.51c-0.0449219 0 -0.09375 -0.0078125 -0.138672 -0.0078125
c-14.4922 0 -27.6172 5.90039 -37.1016 15.4277l-33.5596 33.5605c-9.5127 9.56055 -15.3594 22.7891 -15.3594 37.3281c0 7.89941 1.73633 15.3975 4.84863 22.1318l14.7109 36.0498l-36.1904 -35.6299c-5.74219 -5.7666 -10.207 -12.7715 -13 -20.5898
c-7.94824 -22.1611 -24.4463 -40.1377 -45.6201 -50l-70.3203 -32.5605c-20.7695 -8.33984 -34.7197 -25.0195 -39.0498 -46.1201c-0.894531 -4.18652 -1.37793 -8.49219 -1.37793 -12.9434c0 -17.2822 7.09473 -32.9189 18.5283 -44.1562l67.5498 -67.54
c11.3857 -11.3887 27.0957 -18.4639 44.4561 -18.4639c26.4834 0 49.166 16.4023 58.4336 39.5938l32.9004 71.1006c9.86523 21.1719 27.8408 37.6689 50 45.6191c7.81836 2.79297 14.8232 7.25781 20.5898 13l19.8398 23.0801l-24.1396 -6.38965
c-5.04102 -1.60938 -10.415 -2.49023 -15.9873 -2.49023h-0.0126953zM134.62 123.31l52.6895 -52.6797c2.89746 -2.89648 4.69043 -6.90137 4.69043 -11.3174s-1.79297 -8.41602 -4.69043 -11.3125l-11.3096 -11.3096
c-2.89648 -2.89746 -6.90137 -4.69043 -11.3174 -4.69043s-8.41602 1.79297 -11.3125 4.69043l-52.6904 52.6797c-2.89648 2.89648 -4.68945 6.90137 -4.68945 11.3174s1.79297 8.41602 4.68945 11.3125l11.3105 11.3096c2.89648 2.89746 6.90137 4.69043 11.3174 4.69043
s8.41602 -1.79297 11.3125 -4.69043zM198.62 187.31l52.6895 -52.6797c2.89746 -2.89648 4.69043 -6.90137 4.69043 -11.3174s-1.79297 -8.41602 -4.69043 -11.3125l-11.3096 -11.3096c-2.89648 -2.89746 -6.90137 -4.69043 -11.3174 -4.69043
s-8.41602 1.79297 -11.3125 4.69043l-52.6904 52.6797c-2.89648 2.89648 -4.68945 6.90137 -4.68945 11.3174s1.79297 8.41602 4.68945 11.3125l11.3105 11.3096c2.89648 2.89746 6.90137 4.69043 11.3174 4.69043s8.41602 -1.79297 11.3125 -4.69043z" />
    <glyph glyph-name="guitars" unicode="&#xf8bf;" 
d="M188.1 3.87012c1.34082 1.12988 2.90039 2.66992 4.51074 4.20996c1.28906 -17.5518 6.74121 -34.1953 15.2598 -48.54c-22.7324 -14.8311 -50.0127 -23.542 -79.1553 -23.542c-0.238281 0 -0.476562 0.000976562 -0.714844 0.00195312c-70.6602 0 -128.07 47 -128 105
c-0.0703125 21.5703 8.11035 41.4502 21.7598 57.9404c10.8799 13.1895 12.8799 33.1299 4.87988 48.7793c-5.32422 10.2158 -8.39062 21.8984 -8.41992 34.2002c0 21.5801 9.23047 41.1904 24.6201 56.5801c5.62598 5.59668 11.7969 10.4746 18.5801 14.6699
c12.8398 7.99023 27.5801 11.9902 42.5801 13.8301v54.2598l-16.6299 33.25c-1.95215 3.90625 -3.06738 8.34082 -3.07031 13v54.0801c0 14.5762 11.834 26.4102 26.4102 26.4102h0.00976562h34.5605c14.5518 -0.0224609 26.3594 -11.8428 26.3594 -26.3994v-0.0107422
v-54.0996c-0.00195312 -4.66016 -1.11816 -9.09375 -3.06934 -13l-16.6201 -33.2305v-54.2197c15.0303 -1.83008 29.7402 -5.83008 42.5801 -13.8301c6.78125 -4.19824 12.9512 -9.0752 18.5801 -14.6699c1.06934 -1.07031 1.88965 -2.32031 2.88965 -3.44043v-27.8096
c0.0292969 -15.9365 3.68262 -31.1406 10.0898 -44.6602c1.97949 -4.34766 3.22363 -9.17773 3.52051 -14.1895c-0.110352 -0.220703 -0.150391 -0.450195 -0.260742 -0.670898c-2.99609 -6.08203 -4.70605 -12.9268 -4.70605 -20.1602
c0 -1.15332 0.0419922 -2.29688 0.125977 -3.42969l-23.1494 -63c-1.40039 2.44043 -2.40039 4.91992 -4.40039 7.28027c-23.0098 27.7803 -27.3096 68.46 -10.6201 101.16c8.61035 16.7695 -1.38965 32.8799 -17.3896 42.8799c-4.26953 2.62012 -10.3203 4.62012 -17.21 6
v-82.5c0 -13.2461 -10.7539 -24 -24 -24s-24 10.7539 -24 24v82.46c-6.87012 -1.33984 -12.9199 -3.32031 -17.21 -6c-0.429688 -0.269531 -30.29 -17.71 -17.4297 -42.7998c16.7295 -32.7803 12.4297 -73.46 -10.6406 -101.311
c-7.12012 -8.62988 -10.7197 -17.7998 -10.7197 -27.1797c0 -18.2695 12.46 -31.1699 19.9004 -37.2998c15.3994 -12.6201 37.3193 -19.8701 60.0996 -19.8701s44.6904 7.25 60.0996 19.8701zM400 64c8.83105 0 16 -7.16895 16 -16v-16c0 -8.83105 -7.16895 -16 -16 -16h-64
c-8.83105 0 -16 7.16895 -16 16v16c0 8.83105 7.16895 16 16 16h64zM505.48 47.1797c22.5195 -52.5898 -16.0801 -111.12 -73.3408 -111.18h-128.409c-57.2002 0 -95.7305 58.4902 -73.1104 111.05l27 73.4805c2.84961 7.74805 4.39062 16.2119 4.39062 24.9443
c0 11.0303 -2.4834 21.4854 -6.9209 30.835c-4.4502 9.3584 -6.98633 19.8896 -7 30.9307v50.3301c0.00585938 9.65527 7.84375 17.4941 17.5 17.5c7.54297 0 13.9707 -4.78711 16.4102 -11.4902l13 -35.7598c4.16992 -11.3701 13.6904 -19.2607 25 -22.3701l24 -0.110352
v91.6602l-22.8701 22.9297c-4.90625 4.93262 -7.93555 11.7148 -7.93555 19.2148c0 1.98438 0.211914 3.9209 0.615234 5.78516c17.8408 82.8906 15.4502 85.0898 31.8408 96.2402c6.39746 4.29785 14.1328 6.83008 22.4131 6.83008h0.186523
c0.0136719 0 0.0322266 -0.00585938 0.046875 -0.00585938c22.4902 0 40.75 -18.2588 40.75 -40.75c0 -11.2529 -4.57129 -21.4463 -11.957 -28.8242c-1.57812 -1.42383 -3.2666 -2.68652 -5.08984 -3.7998v-169.92l24 -0.100586c11.2695 2 21.2598 8.63086 26.6201 19
l10.6396 20.5508c3.07422 5.94629 9.27051 9.99707 16.4199 10c10.1836 0 18.4502 -8.26758 18.4502 -18.4502v-0.0205078v-28.3193c-0.00878906 -11.0459 -2.54492 -21.5811 -7 -30.9404c-4.45508 -9.36719 -6.96387 -19.9385 -6.96387 -30.9932
c0 -8.71094 1.54785 -17.0635 4.38379 -24.7969zM432.15 -16c16.1797 0 40.5898 17.7002 29.21 44.2803c-0.350586 0.830078 3.06934 -8.57031 -27.8799 75.8301c-6.31055 17.2197 -8.5 37.8301 -6.64062 55.8896c-0.879883 -0.179688 -118.161 4.52148 -117.67 0
s0.699219 -9.02539 0.699219 -13.6768c0 -14.8428 -2.56641 -29.0898 -7.2793 -42.3232c-31.0098 -84.4102 -27.5801 -75.0098 -27.9297 -75.8398c-6.37012 -14.8604 0.179688 -44.1602 29.0703 -44.1602h128.42z" />
    <glyph glyph-name="hat-cowboy" unicode="&#xf8c0;" horiz-adv-x="640" 
d="M617.78 208.95c17.9502 -8.24023 26.5898 -27.8604 20.04 -45.8506c-3.03027 -7.96973 -76.9805 -195.1 -317.82 -195.1s-314.72 187.13 -317.82 195.3c-6.58008 18.0801 2.20996 37.8301 20.4199 45.9307c5.08887 2.28027 10.7412 3.60449 16.6738 3.60449
c13.4678 0 25.4199 -6.53516 32.8564 -16.6045c3.13965 -4.54004 19.5498 -26.29 56.4004 -47.3506c15.6699 101.03 49.5693 235.12 119.22 235.12c18.3496 0 36.0596 -7.23047 52.6602 -21.5195c11.75 -10.0908 27.5 -10.0908 39.25 0
c16.5996 14.2891 34.3096 21.5195 52.6602 21.5195c69.6797 0 103.54 -134.05 119.22 -235.07c39.4404 22.5508 55.5303 45.9502 57.1699 48.4004c5.73047 7.37988 25.0098 22.7002 49.0703 11.6201zM247.78 335.95c-18.1904 0 -44.6299 -57.3203 -63.46 -148.83
c85.04 -38.8105 193.34 -35.6699 271.489 0c-18.8594 91.4795 -45.2695 148.85 -63.46 148.85c-6.5293 0 -13.7197 -3.33008 -21.3496 -9.91016c-29.9697 -25.8096 -71.8701 -25.8291 -101.87 0c-7.62988 6.56055 -14.8203 9.89062 -21.3496 9.89062zM320 16
c136 0 209.85 67.6396 245.31 116.14c-41.3096 -26.8096 -117.34 -58.54 -245.31 -58.54s-203.66 31.2705 -245.16 58.2705c35.4902 -48.3701 109.351 -115.87 245.16 -115.87z" />
    <glyph glyph-name="hat-cowboy-side" unicode="&#xf8c1;" horiz-adv-x="640" 
d="M483.88 218c117.61 -25.71 156.12 -128.46 156.12 -169.27c-0.0546875 -44.5273 -36.1943 -80.6699 -80.7197 -80.7305h-492.7c-21.1797 0 -40.5801 10.8799 -53.2803 29.8398c-11.9395 17.8906 -16.0898 40.5801 -11.4395 62.2803
c18.04 84.0498 72.3701 144.12 140.14 159.63l6.83984 60.1797c3.60156 33.7324 28.8174 61.1377 61.4697 68l161.78 34.3301c5.23828 1.1084 10.6162 1.62109 16.1816 1.62109c38.6201 0 70.7383 -28.0566 77.0684 -64.8809zM66.5801 16h344.31
c-22.5596 15.1904 -44.7793 33.6201 -69.3701 54.8096l-91 78.46c-21.6494 17.29 -47.3994 26.7305 -73.8691 26.7305c-60.3105 0 -111.65 -50.6201 -127.851 -126c-3.91992 -18.0498 6.91992 -34 17.7803 -34zM311.58 160h134.13l-27.6504 150.62
c-2.30957 14.3418 -14.7363 25.3379 -29.7256 25.3379c-2.17285 0 -4.29102 -0.230469 -6.33398 -0.667969l-161.73 -34.29c-12.6055 -2.66992 -22.3291 -13.2783 -23.6797 -26.3203l-5.92969 -51.8994c34.0322 -3 65.4297 -16.2744 90.5498 -36.6104zM561.83 16.5195
c16.7803 1.37012 30.1699 15.0703 30.1699 32.2109c0 16.9297 -19.1504 89.3691 -98.46 116.579l26.5195 -144.529c13.6367 -2.47754 27.5039 -3.92383 41.7705 -4.26074z" />
    <glyph glyph-name="head-side-headphones" unicode="&#xf8c2;" 
d="M509.21 173c1.76367 -3.9668 2.75879 -8.38281 2.75879 -13c0 -17.6514 -14.3213 -31.9834 -31.9688 -32h-32v-64c0 -35.3223 -28.6777 -64 -64 -64h-32v-48c0 -8.83105 -7.16895 -16 -16 -16h-16c-8.83105 0 -16 7.16895 -16 16v96h80c8.83105 0 16 7.16895 16 16v112
h56.2402c-6.12012 16.2002 -12.4404 34.8096 -19 54.1201c-12.3105 36.3301 -29.1807 86.0996 -40.3701 102c-28.9678 41.1162 -76.7148 67.8545 -130.78 67.8799h-10.0898v-53.2002c46.1504 -13.7998 80 -56.1396 80 -106.8c0 -61.8145 -50.1855 -112 -112 -112
s-112 50.1855 -112 112c0 50.6602 33.8496 93 80 106.8v52.75c-53.3203 -2.30957 -103.87 -30.4297 -128.11 -78.1299c-30.8896 -60.7803 -14.75 -130.42 32.1807 -172.5l15.9297 -14.3096v-182.61c0 -8.83105 -7.16895 -16 -16 -16h-16c-8.83105 0 -16 7.16895 -16 16
v161.19c-39.3164 35.0537 -64.0068 85.9346 -64.0068 142.701c0 2.53125 0.0488281 5.05078 0.146484 7.55859c4 104.47 95.3408 184.55 199.86 184.55h66.0898c70.2979 0 132.399 -34.7725 170.03 -88.25c24.6494 -35.0195 52.1494 -139.63 73.0898 -186.75zM288 240
c-0.0380859 35.3047 -28.6953 63.9619 -64 64c-35.3223 0 -64 -28.6777 -64 -64s28.6777 -64 64 -64s64 28.6777 64 64zM192 240c0 17.6611 14.3389 32 32 32s32 -14.3389 32 -32s-14.3389 -32 -32 -32s-32 14.3389 -32 32z" />
    <glyph glyph-name="horse-saddle" unicode="&#xf8c3;" horiz-adv-x="576" 
d="M464 368c8.83105 0 16 -7.16895 16 -16s-7.16895 -16 -16 -16s-16 7.16895 -16 16s7.16895 16 16 16zM575.94 345.75l0.0595703 -65.3604c0 -0.03125 0.0126953 -0.0449219 0.0126953 -0.0761719c0 -25.9346 -16.75 -47.9883 -40.0127 -55.9238l-31 -10.5898
c-6.50098 -2.20898 -13.4893 -3.4082 -20.7334 -3.4082c-7.0459 0 -13.8291 1.13379 -20.1768 3.22852c0 0 -0.0302734 -7.5 -0.0898438 -8.41992c-0.608398 -31.2393 -12.6133 -59.8105 -32 -81.54v-155.66c0 -17.6611 -14.3389 -32 -32 -32h-80
c-17.6611 0 -32 14.3389 -32 32v121.5l-60.9404 13.5l-9.46973 -26.3799l25.5 -100.76c0.638672 -2.51953 0.980469 -5.14355 0.980469 -7.86035c0 -17.6543 -14.3281 -31.9893 -31.9805 -32h-74.7197c-15.0693 0.0107422 -27.7139 10.4775 -31.0898 24.5195
l-24.1201 100.29c-1.35254 5.91797 -2.05859 12.0137 -2.05859 18.3389c0 7.80371 1.08789 15.3555 3.11816 22.5117l12.9404 43.7598c-38.1104 38.5498 -31.54 84.0996 -31.3799 86.2705c-9.91016 -7.30078 -16.7803 -18.4707 -16.7803 -31.6904v-56
c0 -8.83105 -7.16895 -16 -16 -16h-16c-8.83105 0 -16 7.16895 -16 16v56c0 47.1602 37.3701 85.4502 84 87.5898c20.1504 29.2715 53.8174 48.377 92 48.4102h115.59c14.6006 64 72 112 140.41 112h135.9c4.46387 -0.0136719 8.08496 -3.63574 8.08496 -8.10352
c0 -0.525391 -0.0498047 -1.03906 -0.145508 -1.53613c-3.43945 -16.8105 -16.5596 -30.2705 -32.5596 -35.6602l21.7197 -26.4805c6.03027 -7.33008 10.9404 -20.9893 10.9404 -30.4697zM224 152.88v34.8701c-36.8203 10.5195 -64 44.0898 -64 84.25v13.7695
c-27.5908 -7.02539 -48.0859 -32.0244 -48.0859 -61.79c0 -26.8096 16.5742 -49.7773 40.0264 -59.21l-22.6904 -76.7197c-0.78418 -2.81738 -1.20605 -5.75977 -1.20605 -8.82617c0 -2.53027 0.285156 -4.99512 0.826172 -7.36328l21.1299 -87.8604h41.5303
l-24.0898 95.0596l28.75 80zM208 272c0 -22.0762 17.9238 -40 40 -40s40 17.9238 40 40v16h-80v-16zM520.5 269.81c4.39551 1.48926 7.55957 5.64648 7.55957 10.542v0.0283203l-0.0595703 65.3398l-44.6602 54.2803h-51.3398c-52.9834 0 -96 -43.0166 -96 -96v-32
c0 -40.1602 -27.1797 -73.7305 -64 -84.25v-45.5303l64 -14.2197v-144h48v160.36c19.4111 14.4932 31.9375 37.5889 32 63.6396h0.0595703v80h32l24.9404 -25c2.89355 -2.87793 6.88672 -4.65039 11.2861 -4.65039c1.8252 0 3.5791 0.306641 5.21387 0.870117z" />
    <glyph glyph-name="image-polaroid" unicode="&#xf8c4;" horiz-adv-x="448" 
d="M416 416c17.6611 0 32 -14.3389 32 -32v-384c0 -17.6611 -14.3389 -32 -32 -32h-384c-17.6611 0 -32 14.3389 -32 32v384c0 17.6611 14.3389 32 32 32h384zM400 16v64h-352v-64h352zM400 128v240h-352v-240h16l63.3604 87.7803c7.91992 11 25.3594 11 33.2793 0
l33.0508 -45.7803l63.3799 79c7.45996 9.30957 22.3994 9.30957 29.8594 0l97.0703 -121h16zM144 272c-17.6611 0 -32 14.3389 -32 32s14.3389 32 32 32s32 -14.3389 32 -32s-14.3389 -32 -32 -32z" />
    <glyph glyph-name="joystick" unicode="&#xf8c5;" horiz-adv-x="448" 
d="M416 96c17.6611 0 32 -14.3389 32 -32v-96c0 -17.6611 -14.3389 -32 -32 -32h-384c-17.6611 0 -32 14.3389 -32 32v96c0 17.6611 14.3389 32 32 32h32v16c0 8.83105 7.16895 16 16 16h32c8.83105 0 16 -7.16895 16 -16v-16h72v130.72
c-50.2617 11.0264 -88.0732 55.8506 -88.0732 109.402c0 61.8145 50.1855 112 112 112s112 -50.1855 112 -112c0 -53.5518 -37.665 -98.376 -87.9268 -109.402v-130.72h168zM160 336c0.0380859 -35.3047 28.6953 -63.9619 64 -64c35.3223 0 64 28.6777 64 64
s-28.6777 64 -64 64s-64 -28.6777 -64 -64zM400 -16v64h-352v-64h352z" />
    </font>
</defs>
</svg>
